ML
     
  Уважаемый Гость!
Вы можете поддержать проект и зарегистрироваться у наших партнеров - онлайн-стратегия MyLands. При регистрации в игре Вы получите код, который сможете активировать после регистрации на pirat.ca и получить 1000 дублонов.

Ваш код:
156f85568ae63e45e07ac461c96a83ba1a876b0a
 
     

Славные парни / The Nice Guys (Шейн Блэк / Shane Black) [2016 г., криминал, комедия, CAMRip] VO [Дмитрий Пучков (Гоблин)]

Ответить на тему
 
Автор
Сообщение

Пост 18-Июн-2016 08:31

[Q] 

aleksey99

--Славные парни / The Nice Guys--«Симпатичная пара»-- Производство: США, Великобритания, Bloom, Lip Sync Productions, Misty Mountains
Год выпуска: 2016 г.
Жанр: криминал, комедия
Продолжительность: 01:51:48--Мировая премьера: 15 мая 2016
Российская премьера: 16 июня 2016, «Парадиз»--Перевод: Одноголосый, закадровый (Дмитрий Пучков (Гоблин))--Режиссер: Шейн Блэк / Shane Black--В ролях: Райан Гослинг, Ким Бейсингер, Расселл Кроу, Энгаури Райс, Мэтт Бомер, Маргарет Куэлли, Йайа ДаКоста, Кит Дэвид, Бо Напп, Лоис Смит--Описание: Что бывает, когда напарником брутального костолома становится субтильный лопух? Наемный охранник Джексон Хили и частный детектив Холланд Марч вынуждены работать в паре, чтобы распутать плевое дело о пропавшей девушке, которое оборачивается преступлением века.
Смогут ли парни разгадать сложный ребус, если у каждого из них — свои, весьма индивидуальные, методы…-- --Качество видео: CAMRip
Контейнер: AVI
Видео кодек: XviD
Аудио кодек: MP3
Видео: 720x304 (2.37:1), 29.970 fps, XviD build 50 ~1536 kbps avg, 0.23 bit/pixel
Аудио: 48 kHz, MPEG Layer 3, 2 ch, ~320.00 kbps avg
Cубтитры: отсутствуют.
Общее
Полное имя : H:\Torrent2\The.Nice.Guys.2016.A.CAMRip.avi
Формат : AVI
Формат/Информация : Audio Video Interleave
Размер файла : 1,46 Гбайт
Продолжительность : 1 ч. 51 м.
Общий поток : 1868 Кбит/сек
Программа кодирования : V
Видео
Идентификатор : 0
Формат : MPEG-4 Visual
Профиль формата : Advanced [email protected]
Параметр BVOP формата : 2
Параметр QPel формата : Нет
Параметр GMC формата : Без точки перехода
Параметр матрицы формата : Выборочная
Идентификатор кодека : XVID
Идентификатор кодека/Подсказка : XviD
Продолжительность : 1 ч. 51 м.
Битрейт : 1537 Кбит/сек
Ширина : 720 пикселей
Высота : 304 пикселя
Соотношение сторон : 2,35:1
Частота кадров : 29,970 (29970/1000) кадров/сек
Цветовое пространство : YUV
Субдискретизация насыщенности : 4:2:0
Битовая глубина : 8 бит
Тип развёртки : Прогрессивная
Метод сжатия : С потерями
Бит/(Пиксели*Кадры) : 0.234
Размер потока : 1,20 Гбайт (82%)
Библиотека кодирования : XviD 1.2.1 (UTC 2008-12-04)
Аудио
Идентификатор : 1
Формат : MPEG Audio
Версия формата : Version 1
Профиль формата : Layer 3
Режим : Joint stereo
Идентификатор кодека : 55
Идентификатор кодека/Подсказка : MP3
Продолжительность : 1 ч. 51 м.
Вид битрейта : Постоянный
Битрейт : 320 Кбит/сек
Каналы : 2 канала
Частота : 48,0 КГц
Метод сжатия : С потерями
Размер потока : 256 Мбайт (17%)
Выравнивание : Соединение по промежуткам
Продолжительность промежутка : 33 мс. (1,00 видеокадр)
Время предзагрузки промежутка : 504 мс.
Трейлер
Download / Скачать

Хотите скачать бесплатно? Зарегистрируйтесь на сайте (ссылка на регистрацию). Pirat.ca - самый быстрый торрент трекер в рунете!

Как скачивать  ·   Что такое торрент  ·   Рейтинг и ограничения

АЛЕКСА2005

Корсар

Пост 18-Июн-2016 11:07 (спустя 2 часа 36 минут)

[Q] 

Спасибо!!! Лови бочку
[Профиль]  [ЛС] 

Ivan13

Шкипер

Пост 18-Июн-2016 12:21 (спустя 1 час 14 минут)

[Q] 

Спасибо,заценим сие творение. Лови бочку
[Профиль]  [ЛС] 

nakme

Штурман

Пост 18-Июн-2016 23:42 (спустя 11 часов)

[Q] 

Если озвучил Камрад, значит в официальном переводе - фильм полное, унылое Г!. Ждем качества с переводом Пучкова.
[Профиль]  [ЛС] 

salavat1234

Гроза морей

Пост 19-Июн-2016 19:29 (спустя 19 часов)

[Q] 

Лови бочку Спасибо!!!
[Профиль]  [ЛС] 

jbin2008

Шкипер

Пост 21-Июл-2016 21:09 (спустя 1 месяц 2 дня)

[Q] 

А нахера запикали мат? WTF!
[Профиль]  [ЛС] 

shnabs

Штурман

187

Пост 30-Июл-2016 18:30 (спустя 8 дней)

[Q] 

Да уж гоблина запикивать, это что-то. Спс. Спасибо!!!
[Профиль]  [ЛС] 
Показать сообщения:    
Ответить на тему

Текущее время: Сегодня 21:54

Часовой пояс: GMT + 4



Вы не можете начинать темы
Вы не можете отвечать на сообщения
Вы не можете редактировать свои сообщения
Вы не можете удалять свои сообщения
Вы не можете голосовать в опросах
Вы не можете прикреплять файлы к сообщениям
Вы не можете скачивать файлы

▼ Вниз