ML
     
  Уважаемый Гость!
Вы можете поддержать проект и зарегистрироваться у наших партнеров - онлайн-стратегия MyLands. При регистрации в игре Вы получите код, который сможете активировать после регистрации на pirat.ca и получить 1000 дублонов.

Ваш код:
062e2babcc491faeb40d496cf9a498ac3df6cdd0
 
     

Свет в океане / The Light Between Oceans (Дерек Сиенфрэнс / Derek Cianfrance) [2016 г., драма, мелодрама, CamRip] Dub [CAMRip]

Ответить на тему
 
Автор
Сообщение

Пост 13-Сен-2016 22:02

[Q] 

ara1205

-Свет в океане / The Light Between Oceans-- Производство: Великобритания, Новая Зеландия, США
Год выпуска: 2016 г.
Жанр: драма, мелодрама
Продолжительность: 02:03:00
Мировая премьера: 1 сентября 2016
Российская премьера: 8 сентября 2016
Перевод: Профессиональный (полное дублирование) [CAMRip]-Режиссер: Дерек Сиенфрэнс / Derek Cianfrance-В ролях: Майкл Фассбендер, Алисия Викандер, Рэйчел Вайс, Флоренс Клери, Джек Томпсон, Томас Унгер, Джейн Менелос, Гарри МакДональд-Описание: Вернувшийся с войны смотритель маяка Том встречает трепетную девушку по имени Изабель. Зародившаяся между ними любовь полностью преображает Изабель и возвращает опустошенному Тому веру в жизнь. Молодожены поселяются на уединенном острове, к берегу которого однажды пристает лодка с новорожденной девочкой. Супруги решают воспитать младенца как родную дочь, не представляя, насколько разрушительными будут последствия этого выбора.- -Качество видео: CamRip
Контейнер: AVI
Видео кодек: XviD
Аудио кодек: AC3
Видео: 720x288, 29,970 fps, 1451 kbps avg, 0.233 bit/pixel
Аудио: 48 kHz, AC3 Dolby Digital, 2 ch, ~128 kbps
Cубтитры: отсутствуют-ВНИМАНИЕ: ПРИСУТСТВУЕТ РЕКЛАМА КАЗИНО! -
Общее
Полное имя : C:\Users\Roman\Pictures\Свет в океане\Svet.v.Oceane.2O16.CAMRip.[pirat.ca].avi
Формат : AVI
Формат/Информация : Audio Video Interleave
Размер файла : 1,37 Гбайт
Продолжительность : 2 ч. 3 м.
Общий поток : 1590 Кбит/сек
Программа кодирования : VirtualDubMod 1.5.10.2 (build 2540/release)
Библиотека кодирования : VirtualDubMod build 2540/release
Видео
Идентификатор : 0
Формат : MPEG-4 Visual
Профиль формата : Advanced [email protected]
Параметр BVOP формата : 2
Параметр QPel формата : Нет
Параметр GMC формата : Без точки перехода
Параметр матрицы формата : Выборочная
Идентификатор кодека : XVID
Идентификатор кодека/Подсказка : XviD
Продолжительность : 2 ч. 3 м.
Битрейт : 1451 Кбит/сек
Ширина : 720 пикселей
Высота : 288 пикселей
Соотношение сторон : 2,500
Частота кадров : 29,970 кадров/сек
Цветовое пространство : YUV
Субдискретизация насыщенности : 4:2:0
Битовая глубина : 8 бит
Тип развёртки : Прогрессивная
Метод сжатия : С потерями
Бит/(Пиксели*Кадры) : 0.233
Размер потока : 1,25 Гбайт (91%)
Библиотека кодирования : XviD 1.2.1 (UTC 2008-12-04)
Аудио
Идентификатор : 1
Формат : AC-3
Формат/Информация : Audio Coding 3
Расширение режима : CM (complete main)
Параметр Endianness формата : Big
Идентификатор кодека : 2000
Продолжительность : 2 ч. 3 м.
Вид битрейта : Постоянный
Битрейт : 128 Кбит/сек
Каналы : 2 канала
Расположение каналов : Front: L R
Частота : 48,0 КГц
Битовая глубина : 16 бит
Метод сжатия : С потерями
Размер потока : 113 Мбайт (8%)
Выравнивание : Разделение по промежуткам
Продолжительность промежутка : 33 мс. (1,00 видеокадр)
Время предзагрузки промежутка : 500 мс.
-
-
Download / Скачать

Хотите скачать бесплатно? Зарегистрируйтесь на сайте (ссылка на регистрацию). Pirat.ca - самый быстрый торрент трекер в рунете!

Как скачивать  ·   Что такое торрент  ·   Рейтинг и ограничения

Показать сообщения:    
Ответить на тему

Текущее время: Сегодня 17:40

Часовой пояс: GMT + 4



Вы не можете начинать темы
Вы не можете отвечать на сообщения
Вы не можете редактировать свои сообщения
Вы не можете удалять свои сообщения
Вы не можете голосовать в опросах
Вы не можете прикреплять файлы к сообщениям
Вы не можете скачивать файлы

▼ Вниз