ML
     
  Уважаемый Гость!
Вы можете поддержать проект и зарегистрироваться у наших партнеров - онлайн-стратегия MyLands. При регистрации в игре Вы получите код, который сможете активировать после регистрации на pirat.ca и получить 1000 дублонов.

Ваш код:
8b29d0f8cd61fe457e59e7df0aa1fab41a2b88b9
 
     

Аисты / Storks (Николас Столлер, Даг Свитлэнд / Nicholas Stoller, Doug Sweetland) [2016 г., мультфильм, фэнтези, комедия, приключения, семейный, TS] Dub

Ответить на тему
 
Автор
Сообщение

Пост 26-Сен-2016 08:43

[Q] 

aleksey99

--Аисты / Storks--«From the studio that delivered The Lego Movie»-- Производство: США, Stoller Global Solutions, Warner Animation Group, Warner Bros. Animation
Год выпуска: 2016 г.
Жанр: мультфильм, фэнтези, комедия, приключения, семейный
Продолжительность: 01:22:25--Мировая премьера: 22 сентября 2016
Российская премьера: 22 сентября 2016, «Каро-Премьер»--Перевод: Профессиональный (полное дублирование)--Режиссер: Николас Столлер, Даг Свитлэнд / Nicholas Stoller, Doug Sweetland--В ролях: Энди Сэмберг, Кэти Краун, Келси Грэммер, Дженнифер Энистон, Тай Буррелл, Антон Старкман, Кигэн-Майкл Ки, Джордан Пил, Дэнни Трехо, Стив Гликман--Описание: Аисты приносят детей… или, во всяком случае, раньше приносили. Теперь же они занимаются доставкой посылок для огромного сайта интернет-продаж. Джуниор, лучший аист в курьерской компании, должен пойти на повышение, но он случайно активирует машину для создания детей и получает очаровательную, но совершенно незапланированную девочку.
Пытаясь доставить эту «посылку» до того, как босс узнает о произошедшем, Джуниор и его подруга Лютик, единственный человек на Горе Аистов, решаются на свою первую доставку ребёнка и отправляются в безумное и насыщенное удивительными открытиями приключение, благодаря которому многие семьи могут стать полными, а аисты — вернуться к своей истинной миссии на Земле.-- --Качество видео: TS
Контейнер: AVI
Видео кодек: XviD
Аудио кодек: AC3
Видео: 720x304 (2.37:1), 29.970 fps, XviD build 50 ~1978 kbps avg, 0.30 bit/pixel
Аудио: 48 kHz, AC3 Dolby Digital, 2/0 (L,R) ch, ~384 kbps
Cубтитры: отсутствуют.
Общее
Полное имя : H:\Torrent2\Austy.2O16.D.TS.14OOMB.avi
Формат : AVI
Формат/Информация : Audio Video Interleave
Размер файла : 1,37 Гбайт
Продолжительность : 1 ч. 22 м.
Общий поток : 2375 Кбит/сек
Программа кодирования : VirtualDubMod 1.5.10.2 (build 2540/release)
Библиотека кодирования : VirtualDubMod build 2540/release
Видео
Идентификатор : 0
Формат : MPEG-4 Visual
Профиль формата : Advanced [email protected]
Параметр BVOP формата : 2
Параметр QPel формата : Нет
Параметр GMC формата : Без точки перехода
Параметр матрицы формата : Выборочная
Идентификатор кодека : XVID
Идентификатор кодека/Подсказка : XviD
Продолжительность : 1 ч. 22 м.
Битрейт : 1979 Кбит/сек
Ширина : 720 пикселей
Высота : 304 пикселя
Соотношение сторон : 2,35:1
Частота кадров : 29,970 (30000/1001) кадров/сек
Цветовое пространство : YUV
Субдискретизация насыщенности : 4:2:0
Битовая глубина : 8 бит
Тип развёртки : Прогрессивная
Метод сжатия : С потерями
Бит/(Пиксели*Кадры) : 0.302
Размер потока : 1,14 Гбайт (83%)
Библиотека кодирования : XviD 1.2.1 (UTC 2008-12-04)
Аудио
Идентификатор : 1
Формат : AC-3
Формат/Информация : Audio Coding 3
Расширение режима : CM (complete main)
Параметр Endianness формата : Big
Идентификатор кодека : 2000
Продолжительность : 1 ч. 22 м.
Вид битрейта : Постоянный
Битрейт : 384 Кбит/сек
Каналы : 2 канала
Расположение каналов : Front: L R
Частота : 48,0 КГц
Частота кадров : 31,250 кадров/сек (1536 spf)
Метод сжатия : С потерями
Размер потока : 226 Мбайт (16%)
Выравнивание : Разделение по промежуткам
Продолжительность промежутка : 33 мс. (1,00 видеокадр)
Время предзагрузки промежутка : 500 мс.
ТрейлерПРИСУТСТВУЕТ РЕКЛАМА!
Download / Скачать

Хотите скачать бесплатно? Зарегистрируйтесь на сайте (ссылка на регистрацию). Pirat.ca - самый быстрый торрент трекер в рунете!

Как скачивать  ·   Что такое торрент  ·   Рейтинг и ограничения

savicus

Морской Волк

Пост 26-Сен-2016 12:45 (спустя 4 часа)

[Q] 

С удовольствием посмотрю с ребёнком!
[Профиль]  [ЛС] 

kostyawerty

Штурман

Пост 02-Окт-2016 22:33 (спустя 6 дней)

[Q] 

с удовольтсвием посмотрю сам) ребенок 26 лет)
[Профиль]  [ЛС] 

Provodnik

Шкипер

3

Пост 03-Окт-2016 20:49 (спустя 22 часа)

[Q] 

Отзывы, народ, отзывы - вот, самое лучшее, что вы можете написать на этом форуме!
Что? Где? Как? Почему молчим? =)
[Профиль]  [ЛС] 

mgld

Лоцман

Пост 02-Дек-2016 23:01 (спустя 1 месяц 30 дней)

[Q] 

и где раздача?)
[Профиль]  [ЛС] 
Показать сообщения:    
Ответить на тему

Текущее время: Сегодня 21:23

Часовой пояс: GMT + 4



Вы не можете начинать темы
Вы не можете отвечать на сообщения
Вы не можете редактировать свои сообщения
Вы не можете удалять свои сообщения
Вы не можете голосовать в опросах
Вы не можете прикреплять файлы к сообщениям
Вы не можете скачивать файлы

▼ Вниз