ML
     
  Уважаемый Гость!
Вы можете поддержать проект и зарегистрироваться у наших партнеров - онлайн-стратегия MyLands. При регистрации в игре Вы получите код, который сможете активировать после регистрации на pirat.ca и получить 1000 дублонов.

Ваш код:
69f316be79867e9bf99caee9682d20bb11964507
 
     

Великолепная семерка / The Magnificent Seven (Антуан Фукуа / Antoine Fuqua) [2016 г., боевик, вестерн, TS] Dub

Ответить на тему
 
Автор
Сообщение

Пост 26-Сен-2016 21:11

[Q] 

aleksey99

--Великолепная семерка / The Magnificent Seven--«Justice has a number»-- Производство: США / Columbia Pictures, LStar Capital, Metro-Goldwyn-Mayer (MGM), Village Roadshow Pictures
Год выпуска: 2016 г.
Жанр: боевик, вестерн
Продолжительность: 02:08:15--Мировая премьера: 8 сентября 2016
Российская премьера: 22 сентября 2016, «WDSSPR»--Перевод: Профессиональный (полное дублирование)--Режиссер: Антуан Фукуа / Antoine Fuqua--В ролях: Дензел Вашингтон, Крис Пратт, Итан Хоук, Винсент Д'Онофрио, Ли Бён-хон, Мануэль Рульфо, Мартин Сенсмейер, Хейли Беннетт, Питер Сарсгаард, Люк Граймс--Описание: Семеро отважных искателей приключений встают на защиту жителей маленького городка, угнетаемого бандой грабителей.-- --Качество видео: TS
Контейнер: AVI
Видео кодек: XviD
Аудио кодек: AC3
Видео: 720x304 (2.37:1), 29.970 fps, XviD build 50 ~1893 kbps avg, 0.29 bit/pixel
Аудио: 48 kHz, AC3 Dolby Digital, 2/0 (L,R) ch, ~384 kbps
Cубтитры: отсутствуют.
Общее
Полное имя : H:\Torrent2\Semerka.2O16.D.TS.21OOMB.avi
Формат : AVI
Формат/Информация : Audio Video Interleave
Профиль формата : OpenDML
Размер файла : 2,05 Гбайт
Продолжительность : 2 ч. 8 м.
Общий поток : 2292 Кбит/сек
Программа кодирования : VirtualDubMod 1.5.10.2 (build 2540/release)
Библиотека кодирования : VirtualDubMod build 2540/release
Видео
Идентификатор : 0
Формат : MPEG-4 Visual
Профиль формата : Advanced [email protected]
Параметр BVOP формата : 2
Параметр QPel формата : Нет
Параметр GMC формата : Без точки перехода
Параметр матрицы формата : Выборочная
Идентификатор кодека : XVID
Идентификатор кодека/Подсказка : XviD
Продолжительность : 2 ч. 8 м.
Битрейт : 1893 Кбит/сек
Ширина : 720 пикселей
Высота : 304 пикселя
Соотношение сторон : 2,35:1
Частота кадров : 29,970 (30000/1001) кадров/сек
Цветовое пространство : YUV
Субдискретизация насыщенности : 4:2:0
Битовая глубина : 8 бит
Тип развёртки : Прогрессивная
Метод сжатия : С потерями
Бит/(Пиксели*Кадры) : 0.289
Размер потока : 1,70 Гбайт (83%)
Библиотека кодирования : XviD 1.2.1 (UTC 2008-12-04)
Аудио
Идентификатор : 1
Формат : AC-3
Формат/Информация : Audio Coding 3
Расширение режима : CM (complete main)
Параметр Endianness формата : Big
Идентификатор кодека : 2000
Продолжительность : 2 ч. 8 м.
Вид битрейта : Постоянный
Битрейт : 384 Кбит/сек
Каналы : 2 канала
Расположение каналов : Front: L R
Частота : 48,0 КГц
Частота кадров : 31,250 кадров/сек (1536 spf)
Метод сжатия : С потерями
Размер потока : 352 Мбайт (17%)
Выравнивание : Разделение по промежуткам
Продолжительность промежутка : 33 мс. (1,00 видеокадр)
Время предзагрузки промежутка : 500 мс.
ТрейлерПРИСУТСТВУЕТ РЕКЛАМА!
Download / Скачать

Хотите скачать бесплатно? Зарегистрируйтесь на сайте (ссылка на регистрацию). Pirat.ca - самый быстрый торрент трекер в рунете!

Как скачивать  ·   Что такое торрент  ·   Рейтинг и ограничения

Gorbunkoff

Шкипер

Пост 26-Сен-2016 23:27 (спустя 2 часа 15 минут)

[Q] 

Скоротать вечерок в самый раз Мне понравилось Раздающему респект!
[Профиль]  [ЛС] 

putnikugra

Штурман

Пост 27-Сен-2016 01:22 (спустя 1 час 55 минут)

[Q] 

Довольно хороший фильм, думаю что чуть позже пересмотрю еще раз. Спасибо!
[Профиль]  [ЛС] 

Aleks44

Гроза морей

Пост 27-Сен-2016 02:01 (спустя 38 минут)

[Q] 

Давно не показывали таких захватывающих интересный вестернов
[Профиль]  [ЛС] 

tuareg

Шкипер

Пост 27-Сен-2016 17:11 (спустя 15 часов)

[Q] 

Политкорректность конечно зашкаливает в этом фильме (негры, мексиканцы, индейцы в составе отряда хороших парней- и никто из персонажей фильма ни словом об этом (в 19-м веке!) , да они бы ни в один бар зайти бы ни смогли, не то что стрелять в белых людей...). Но это конечно придирки...Фильму твёрдую 6 из 10-ти. За зрелищность...
[Профиль]  [ЛС] 

koreshan

Лоцман

Пост 28-Сен-2016 14:33 (спустя 21 час)

[Q] 

Ну, насчет мексиканцев/индейцев в тех краях с Туарегом можно поспорить, но негров и азиатов просто за ношение оружия (или даже гуляние без хозяина) могли вздернуть на первом дереве... фильм еще не смотрел, качаю, хоть и боюсь, что испортит впечатление от первых двух версий....
[Профиль]  [ЛС] 

Mirgilip

Лоцман

Пост 29-Сен-2016 06:59 (спустя 16 часов)

[Q] 

Штааа ??? Негра великолепный семерошник ? Их там все переклинтонило вконец ?...
Хотя что удивляться если в сериале Беовульф ( об древних скандинавах, Карл ! ) негр играет главу северного клана... Мда.
[Профиль]  [ЛС] 

Andriv

Лоцман

Пост 08-Окт-2016 18:08 (спустя 9 дней)

[Q] 

Есть старый фильм, он был не плох. Но на сколько я его помню никаких негров в той семерки не было. Глянем этот.
[Профиль]  [ЛС] 

kostyawerty

Штурман

Пост 09-Окт-2016 10:25 (спустя 16 часов)

[Q] 

Хороший фильм,весьма. Бочку в трюм Лови бочку
[Профиль]  [ЛС] 

housedoc

Шкипер

Пост 09-Окт-2016 19:22 (спустя 8 часов)

[Q] 

очень люблю вестерны,автору спасибо!
[Профиль]  [ЛС] 

Прораб

Легенда

Пост 11-Окт-2016 00:12 (спустя 1 день 4 часа)

[Q] 

Ну что же, поглядим как негры играют ковбоев. Э-эх...

_________________
Config comp: CPU-i7-2600K/RAM-32Gb/GF580GTX-1536Mb/RAID0(2 SSD-480GB)+RAID5(8 HDD-20Tb)/Win7 64bit.
[Профиль]  [ЛС] 

JaCKaL11

Морской Волк

Пост 11-Окт-2016 02:58 (спустя 2 часа 45 минут)

[Q] 

вестернов действительно давно нормальных не снимали.
[Профиль]  [ЛС] 

Provodnik

Шкипер

3

Пост 11-Окт-2016 20:33 (спустя 17 часов)

[Q] 

Нормальный фильм, посмотреть можно. Особого восторга не испытал, но, все же...
Есть перекосы помимо расовой темы. Например, почему Стрелок не убил с колокольни пулеметчика? Ведь у пулемета Гатлинга пистолетный патрон 45 калибра, а у карабина, скорее всего патрон калибра от .32-20 и .32-40 (7.62мм) до более мощного -.45-70 (11.43мм), соответственно, мог спокойно пристрелить гопников
[Профиль]  [ЛС] 

колотов

Шкипер

Пост 26-Ноя-2016 16:22 (спустя 1 месяц 14 дней)

[Q] 

Хорошое кино. Добротный вестерн. Давно так не снимали. Молодцы. Порадовали. Жду качества.
[Профиль]  [ЛС] 
Показать сообщения:    
Ответить на тему

Текущее время: Сегодня 14:34

Часовой пояс: GMT + 4



Вы не можете начинать темы
Вы не можете отвечать на сообщения
Вы не можете редактировать свои сообщения
Вы не можете удалять свои сообщения
Вы не можете голосовать в опросах
Вы не можете прикреплять файлы к сообщениям
Вы не можете скачивать файлы

▼ Вниз