ML
     
  Уважаемый Гость!
Вы можете поддержать проект и зарегистрироваться у наших партнеров - онлайн-стратегия MyLands. При регистрации в игре Вы получите код, который сможете активировать после регистрации на pirat.ca и получить 1000 дублонов.

Ваш код:
ec3b26eefbcdc72e08e9fd33c6846bb2ca10f8b1
 
     

Глубоководный горизонт / Deepwater Horizon (Питер Берг / Peter Berg) [2016 г., боевик, триллер, драма, CAMRip *Proper*] Dub

Ответить на тему
 
Автор
Сообщение

Пост 04-Окт-2016 17:22

[Q] 

aleksey99

--Глубоководный горизонт / Deepwater Horizon--«When faced with our darkest hour, hope is not a tactic»-- Производство: США, Closest to the Hole Productions, Di Bonaventura Pictures, Imagenation Abu Dhabi FZ, Leverage Entertainment, Participant Media, Summit Entertainment
Год выпуска: 2016 г.
Жанр: боевик, триллер, драма
Продолжительность: 01:38:25--Мировая премьера: 13 сентября 2016
Российская премьера: 29 сентября 2016, «Централ Партнершип»--Перевод: Профессиональный (полное дублирование)--Режиссер: Питер Берг / Peter Berg--В ролях: Марк Уолберг, Дилан О’Брайен, Кейт Хадсон, Курт Рассел, Итан Сапли, Джина Родригез, Джон Малкович, Сью-Линн Ансари, Брэд Лелэнд, Дж.Д. Эвермор--Описание: Отправляясь на очередную вахту и прощаясь с семьями, они не подозревали, что могут не вернуться… Это основанная на реальных событиях история о страшной аварии на нефтяной платформе «Глубоководный горизонт», которая произошла в 2010 году в Мексиканском заливе. Хроника беспримерного мужества и отваги перед лицом одной из самых страшных техногенных катастроф в мировой истории.-- --Качество видео: CAMRip *Proper*
Контейнер: AVI
Видео кодек: XviD
Аудио кодек: AC3
Видео: 720x336 (2.14:1), 29.970 fps, XviD build 50 ~1784 kbps avg, 0.25 bit/pixel
Аудио: 48 kHz, AC3 Dolby Digital, 2/0 (L,R) ch, ~192 kbps
Cубтитры: отсутствуют.
Общее
Полное имя : H:\Torrent2\Gorizont.Glubokovodniy.2O16.D.CAMRip.PROPER.14OOMB.avi
Формат : AVI
Формат/Информация : Audio Video Interleave
Размер файла : 1,37 Гбайт
Продолжительность : 1 ч. 38 м.
Общий поток : 1988 Кбит/сек
Программа кодирования : VirtualDubMod 1.5.10.2 (build 2540/release)
Библиотека кодирования : VirtualDubMod build 2540/release
Видео
Идентификатор : 0
Формат : MPEG-4 Visual
Профиль формата : Advanced [email protected]
Параметр BVOP формата : 2
Параметр QPel формата : Нет
Параметр GMC формата : Без точки перехода
Параметр матрицы формата : Выборочная
Идентификатор кодека : XVID
Идентификатор кодека/Подсказка : XviD
Продолжительность : 1 ч. 38 м.
Битрейт : 1785 Кбит/сек
Ширина : 720 пикселей
Высота : 336 пикселей
Соотношение сторон : 2,143
Частота кадров : 29,970 (30000/1001) кадров/сек
Цветовое пространство : YUV
Субдискретизация насыщенности : 4:2:0
Битовая глубина : 8 бит
Тип развёртки : Прогрессивная
Метод сжатия : С потерями
Бит/(Пиксели*Кадры) : 0.246
Размер потока : 1,23 Гбайт (90%)
Библиотека кодирования : XviD 1.2.1 (UTC 2008-12-04)
Аудио
Идентификатор : 1
Формат : AC-3
Формат/Информация : Audio Coding 3
Расширение режима : CM (complete main)
Параметр Endianness формата : Big
Идентификатор кодека : 2000
Продолжительность : 1 ч. 38 м.
Вид битрейта : Постоянный
Битрейт : 192 Кбит/сек
Каналы : 2 канала
Расположение каналов : Front: L R
Частота : 48,0 КГц
Частота кадров : 31,250 кадров/сек (1536 spf)
Метод сжатия : С потерями
Размер потока : 135 Мбайт (10%)
Выравнивание : Разделение по промежуткам
Продолжительность промежутка : 33 мс. (1,00 видеокадр)
Время предзагрузки промежутка : 500 мс.
ТрейлерПРИСУТСТВУЕТ РЕКЛАМА!
Download / Скачать

Хотите скачать бесплатно? Зарегистрируйтесь на сайте (ссылка на регистрацию). Pirat.ca - самый быстрый торрент трекер в рунете!

Как скачивать  ·   Что такое торрент  ·   Рейтинг и ограничения

Ivan13

Шкипер

Пост 04-Окт-2016 19:16 (спустя 1 час 54 минуты)

[Q] 

Как качество,подскажите?
[Профиль]  [ЛС] 

darc12345

Штурман

Пост 04-Окт-2016 20:45 (спустя 1 час 28 минут)

[Q] 

плохое качество экранка
[Профиль]  [ЛС] 

belka13

Лоцман

Пост 05-Окт-2016 10:48 (спустя 14 часов)

[Q] 

на разок огонь кино) качество на 6 из 10 Автору респект!!!
[Профиль]  [ЛС] 

ksained_mate

Корсар

Пост 05-Окт-2016 11:49 (спустя 1 час)

[Q] 

эх... дождусь качества! Автору респект!!!
[Профиль]  [ЛС] 

Прораб

Легенда

Пост 11-Окт-2016 00:08 (спустя 5 дней)

[Q] 

Мерси...
Посмотрим, оценим...

_________________
Config comp: CPU-i7-2600K/RAM-32Gb/GF580GTX-1536Mb/RAID0(2 SSD-480GB)+RAID5(8 HDD-20Tb)/Win7 64bit.
[Профиль]  [ЛС] 

ГИППАРРД

Морской Волк

2

Пост 13-Окт-2016 14:33 (спустя 2 дня 14 часов)

[Q] 

давно ждали за версию респект!!!!!
[Профиль]  [ЛС] 
Показать сообщения:    
Ответить на тему

Текущее время: Сегодня 03:52

Часовой пояс: GMT + 4



Вы не можете начинать темы
Вы не можете отвечать на сообщения
Вы не можете редактировать свои сообщения
Вы не можете удалять свои сообщения
Вы не можете голосовать в опросах
Вы не можете прикреплять файлы к сообщениям
Вы не можете скачивать файлы

▼ Вниз