ML
     
  Уважаемый Гость!
Вы можете поддержать проект и зарегистрироваться у наших партнеров - онлайн-стратегия MyLands. При регистрации в игре Вы получите код, который сможете активировать после регистрации на pirat.ca и получить 1000 дублонов.

Ваш код:
bb0cb47ee786a33f751af5a500dd264c9487bfac
 
     

Инферно / Inferno (Рон Ховард / Ron Howard) [2016 г., боевик, триллер, драма, криминал, детектив, CamRip] Dub

Ответить на тему
 
Автор
Сообщение

Пост 14-Окт-2016 23:31

[Q] 

Су-34

Гроза морей

-Инферно / Inferno-- Производство: США, Япония, Турция, Венгрия / Columbia Pictures, Imagine Entertainment, LStar Capital
Год выпуска: 2016 г.
Жанр: боевик, триллер, драма, криминал, детектив
Продолжительность: 01:56:23
Мировая премьера: 8 октября 2016
Российская премьера: 13 октября 2016, «WDSSPR»
Перевод: Профессиональный (полное дублирование)-Режиссер: Рон Ховард / Ron Howard-В ролях: Том Хэнкс, Бен Фостер, Сидсе Бабетт Кнудсен, Фелисити Джонс, Ирфан Кхан, Омар Си, Ана Улару, Ката Сарбо, Ида Дарвиш, Вольфганг Штегеман-Описание: Профессор Роберт Лэнгдон приходит в сознание в одной из итальянских больниц, полностью потеряв память. Местный врач Сиенна Брукс пытается помочь Роберту не только восстановить воспоминания, но и остановить загадочных злоумышленников, которые намерены распространить смертоносный вирус. Разгадка таинственной истории связана с «Адом» (ит. Inferno) — первой частью «Божественной комедии» Данте.- -Качество видео: CamRip
Контейнер: AVI
Видео кодек: XviD
Аудио кодек: AC3
Видео: 720x320, 25.000 fps, 1654 Кбит/с
Аудио: 128 kb/s, 2 ch, 48.0 KHz
Cубтитры: отсутствуют
General
Complete name : E:\Inferno.2016.CAMRip.avi
Format : AVI
Format/Info : Audio Video Interleave
File size : 1.46 GiB
Duration : 1 h 56 min
Overall bit rate : 1 792 kb/s
Writing application : VirtualDubMod 1.5.10.2 (build 2540/release)
Writing library : VirtualDubMod build 2540/release
Video
ID : 0
Format : MPEG-4 Visual
Format profile : Advanced [email protected]
Format settings, BVOP : 2
Format settings, QPel : No
Format settings, GMC : No warppoints
Format settings, Matrix : Custom
Codec ID : XVID
Codec ID/Hint : XviD
Duration : 1 h 56 min
Bit rate : 1 655 kb/s
Width : 720 pixels
Height : 320 pixels
Display aspect ratio : 2.25:1
Frame rate : 25.000 FPS
Color space : YUV
Chroma subsampling : 4:2:0
Bit depth : 8 bits
Scan type : Progressive
Compression mode : Lossy
Bits/(Pixel*Frame) : 0.287
Stream size : 1.35 GiB (92%)
Writing library : XviD 1.2.1 (UTC 2008-12-04)
Audio
ID : 1
Format : AC-3
Format/Info : Audio Coding 3
Mode extension : CM (complete main)
Format settings, Endianness : Big
Codec ID : 2000
Duration : 1 h 56 min
Bit rate mode : Constant
Bit rate : 128 kb/s
Channel(s) : 2 channels
Channel positions : Front: L R
Sampling rate : 48.0 kHz
Frame rate : 31.250 FPS (1536 spf)
Compression mode : Lossy
Stream size : 107 MiB (7%)
Alignment : Split accross interleaves
Interleave, duration : 40 ms (1.00 video frame)
Interleave, preload duratio : 500 ms
Download / Скачать

Хотите скачать бесплатно? Зарегистрируйтесь на сайте (ссылка на регистрацию). Pirat.ca - самый быстрый торрент трекер в рунете!

Как скачивать  ·   Что такое торрент  ·   Рейтинг и ограничения

salavat1234

Гроза морей

Пост 15-Окт-2016 17:08 (спустя 17 часов)

[Q] 

Народ как качество?Кто посмотрел отпишитесь пожалуйста ck Лови бочку
[Профиль]  [ЛС] 

Alhimik

Штурман

17

Пост 15-Окт-2016 20:58 (спустя 3 часа)

[Q] 

А ты посмотри и отпишись как оно!
[Профиль]  [ЛС] 

vespasian

Штурман

Пост 15-Окт-2016 21:26 (спустя 28 минут)

[Q] 

Автору раздачи спасибо конечно за труды, но - это ШЛАК (качество видео)! Да и звук находится в районе помойки.
[Профиль]  [ЛС] 

asuslx

Шкипер

Пост 16-Окт-2016 01:09 (спустя 3 часа)

[Q] 

Спасибо.
Фильм вроде интересный, но посмотрел гдето процентов 30, качество... скрины не совсем отражают: картинка - влево сдвинута сильно, сама по себе низкого качества, камера периодически трясется, там сам фильм динамичный довольно, забыл как это назвается, в общем для реализма оператор тоже как то там при сьемках делают, что точка зрения как то потрясывается, но в купе с трясением оператора в кинотеатре - ужасно. звук тоже не хороший.
Думаю стоит в кино или потом глянуть, чтобы не портить впечатление.
[Профиль]  [ЛС] 

kostyawerty

Штурман

Пост 16-Окт-2016 08:18 (спустя 7 часов)

[Q] 

Очешуенная книга,надеюсь и фильм такой же получился. Поэтому жду качества. бочку за труды
[Профиль]  [ЛС] 
Показать сообщения:    
Ответить на тему

Текущее время: Сегодня 02:19

Часовой пояс: GMT + 4



Вы не можете начинать темы
Вы не можете отвечать на сообщения
Вы не можете редактировать свои сообщения
Вы не можете удалять свои сообщения
Вы не можете голосовать в опросах
Вы не можете прикреплять файлы к сообщениям
Вы не можете скачивать файлы

▼ Вниз