ML
     
  Уважаемый Гость!
Вы можете поддержать проект и зарегистрироваться у наших партнеров - онлайн-стратегия MyLands. При регистрации в игре Вы получите код, который сможете активировать после регистрации на pirat.ca и получить 1000 дублонов.

Ваш код:
69f316be79867e9bf99caee9682d20bb11964507
 
     

Инферно / Inferno (Рон Ховард / Ron Howard) [2016 г., боевик, триллер, драма, криминал, детектив, CamRip "PROPER"] Dub

Ответить на тему
 
Автор
Сообщение

Пост 17-Окт-2016 18:50

[Q] 

aleksey99

--Инферно / Inferno--«Every clue will take him deeper»-- Производство: США, Япония, Турция, Венгрия, Columbia Pictures, Imagine Entertainment, LStar Capital
Год выпуска: 2016 г.
Жанр: боевик, триллер, драма, криминал, детектив
Продолжительность: 01:54:03--Мировая премьера: 8 октября 2016
Российская премьера: 13 октября 2016, «WDSSPR»--Перевод: Профессиональный (полное дублирование)--Режиссер: Рон Ховард / Ron Howard--В ролях: Том Хэнкс, Бен Фостер, Сидсе Бабетт Кнудсен, Фелисити Джонс, Ирфан Кхан, Омар Си, Ана Улару, Ката Сарбо, Ида Дарвиш, Вольфганг Штегеман--Описание: Профессор Роберт Лэнгдон приходит в сознание в одной из итальянских больниц, полностью потеряв память. Местный врач Сиенна Брукс пытается помочь Роберту не только восстановить воспоминания, но и остановить загадочных злоумышленников, которые намерены распространить смертоносный вирус. Разгадка таинственной истории связана с «Адом» (ит. Inferno) — первой частью «Божественной комедии» Данте.-- --Качество видео: CamRip "PROPER"
Контейнер: AVI
Видео кодек: XviD
Аудио кодек: AC3
Видео: 720x368 (1.96:1), 29.970 fps, XviD build 50 ~1626 kbps avg, 0.20 bit/pixel
Аудио: 48 kHz, AC3 Dolby Digital, 2/0 (L,R) ch, ~192 kbps
Cубтитры: отсутствуют.
Общее
Полное имя : H:\Torrent2\EnfernA.2O16.D.CAMRip.PROPER.14OOMB.avi
Формат : AVI
Формат/Информация : Audio Video Interleave
Размер файла : 1,46 Гбайт
Продолжительность : 1 ч. 54 м.
Общий поток : 1830 Кбит/сек
Программа кодирования : VirtualDubMod 1.5.10.2 (build 2540/release)
Библиотека кодирования : VirtualDubMod build 2540/release
Видео
Идентификатор : 0
Формат : MPEG-4 Visual
Профиль формата : Advanced [email protected]
Параметр BVOP формата : 2
Параметр QPel формата : Нет
Параметр GMC формата : Без точки перехода
Параметр матрицы формата : Выборочная
Идентификатор кодека : XVID
Идентификатор кодека/Подсказка : XviD
Продолжительность : 1 ч. 54 м.
Битрейт : 1626 Кбит/сек
Ширина : 720 пикселей
Высота : 368 пикселей
Соотношение сторон : 1,957
Частота кадров : 29,970 (30000/1001) кадров/сек
Цветовое пространство : YUV
Субдискретизация насыщенности : 4:2:0
Битовая глубина : 8 бит
Тип развёртки : Прогрессивная
Метод сжатия : С потерями
Бит/(Пиксели*Кадры) : 0.205
Размер потока : 1,30 Гбайт (89%)
Библиотека кодирования : XviD 1.2.1 (UTC 2008-12-04)
Аудио
Идентификатор : 1
Формат : AC-3
Формат/Информация : Audio Coding 3
Расширение режима : CM (complete main)
Параметр Endianness формата : Big
Идентификатор кодека : 2000
Продолжительность : 1 ч. 54 м.
Вид битрейта : Постоянный
Битрейт : 192 Кбит/сек
Каналы : 2 канала
Расположение каналов : Front: L R
Частота : 48,0 КГц
Частота кадров : 31,250 кадров/сек (1536 spf)
Метод сжатия : С потерями
Размер потока : 157 Мбайт (10%)
Выравнивание : Разделение по промежуткам
Продолжительность промежутка : 33 мс. (1,00 видеокадр)
Время предзагрузки промежутка : 500 мс.
ТрейлерСравнение CAMRip vs CAMRip "PROPER"--ПРИСУТСТВУЕТ РЕКЛАМА!
Download / Скачать

Хотите скачать бесплатно? Зарегистрируйтесь на сайте (ссылка на регистрацию). Pirat.ca - самый быстрый торрент трекер в рунете!

Как скачивать  ·   Что такое торрент  ·   Рейтинг и ограничения

salavat1234

Гроза морей

Пост 17-Окт-2016 21:26 (спустя 2 часа 36 минут)

[Q] 

Автору респект!!! Лови бочку
[Профиль]  [ЛС] 

kimrutberg

Морской Волк

Пост 18-Окт-2016 03:37 (спустя 6 часов)

[Q] 

За труды Лови бочку

_________________
Всем пиратам - семь футов под килем !
[Профиль]  [ЛС] 

bolin

Флибустьер

Пост 18-Окт-2016 17:32 (спустя 13 часов)

[Q] 

Спасибо за оперативность! Лови бочку
[Профиль]  [ЛС] 

kostyawerty

Штурман

Пост 19-Окт-2016 10:28 (спустя 16 часов)

[Q] 

ой какое спасибо!!!!!
[Профиль]  [ЛС] 

swallow13

Штурман

Пост 20-Окт-2016 04:47 (спустя 18 часов)

[Q] 

Заценим смотрибельность... Спасибо!!!
[Профиль]  [ЛС] 

jofrei53

Корсар

Пост 24-Окт-2016 01:47 (спустя 3 дня)

[Q] 

Спасибо! Заинтересовало....Посмотрим. Автору респект!!! Лови бочку
[Профиль]  [ЛС] 

VictorSor

Штурман

Пост 24-Окт-2016 16:28 (спустя 14 часов)

[Q] 

Посмотрел в кинотеатре - проходное кино. Хэнкс какой то больной, весь в прыщах, при этом зачем-то полно крупных планов с ними. Сюжет слабый, много наивности и не реальности (например, чел стырил бесценный экспонат из музея, но его никто не ищет и т.д.). С другой стороны имеются виды красивых мест в Турции и Италии, все снято на мировом уровне.
[Профиль]  [ЛС] 

OLEG_PS2009

Флибустьер

Пост 25-Окт-2016 13:47 (спустя 21 час)

[Q] 

770544Посмотрел в кинотеатре - проходное кино. Хэнкс какой то больной, весь в прыщах, при этом зачем-то полно крупных планов с ними. Сюжет слабый, много наивности и не реальности (например, чел стырил бесценный экспонат из музея, но его никто не ищет и т.д.). С другой стороны имеются виды красивых мест в Турции и Италии, все снято на мировом уровне.
Смотрибельность CamRip "PROPER" оставляет желать лучшего, картинка на троечку, звук чуть получше.
Согласен с VictorSor, Хэнкс какой то больной, такое ощущение, что его выдрали с больничной койки для съемок в фильме. По сюжету -- одноразовый фильм, очень слабенький сценарий((((
Раздающему респект!
[Профиль]  [ЛС] 

ketzer

Морской Волк

Пост 26-Окт-2016 00:10 (спустя 10 часов)

[Q] 

Я когда-то по несколько раз пересмотрел "Код да Винчи" и "Ангелы и демоны", но этот фильм пересматривать наверняка не буду. Хотя посмотрел с удовольствием.
[Профиль]  [ЛС] 
Показать сообщения:    
Ответить на тему

Текущее время: Сегодня 14:31

Часовой пояс: GMT + 4



Вы не можете начинать темы
Вы не можете отвечать на сообщения
Вы не можете редактировать свои сообщения
Вы не можете удалять свои сообщения
Вы не можете голосовать в опросах
Вы не можете прикреплять файлы к сообщениям
Вы не можете скачивать файлы

▼ Вниз