ML
     
  Уважаемый Гость!
Вы можете поддержать проект и зарегистрироваться у наших партнеров - онлайн-стратегия MyLands. При регистрации в игре Вы получите код, который сможете активировать после регистрации на pirat.ca и получить 1000 дублонов.

Ваш код:
156f85568ae63e45e07ac461c96a83ba1a876b0a
 
     

Джек Ричер 2: Никогда не возвращайся / Jack Reacher: Never Go Back (Эдвард Цвик / Edward Zwick) [2016 г., Боевик, триллер, криминал, детектив, приключения, CamRip] Dub

Ответить на тему
 
Автор
Сообщение

Пост 21-Окт-2016 21:58

[Q] 

Су-34

Гроза морей

-Джек Ричер 2: Никогда не возвращайся / Jack Reacher: Never Go Back«Не уступай, не сдавайся, не возвращайся»-- Производство: Китай, США
Год выпуска: 2016 г.
Жанр: Боевик, триллер, криминал, детектив, приключения
Продолжительность: 01:52:42
Мировая премьера: 19 октября 2016
Российская премьера: 20 октября 2016
Перевод: Профессиональный (полное дублирование)-Режиссер: Эдвард Цвик / Edward Zwick-В ролях: Том Круз, Коби Смолдерс, Роберт Неппер, Даника Ярош, Нинджа Н. Деву, Элдис Ходж, Холт МакКэллани, Мэдалин Хорчер, Чейз Савой, Сью-Линн Ансари-Описание: Джек Ричер решил взять передышку и вернуться в родное 110-е подразделение военной полиции, где он когда-то был начальником. Тем более у него есть дополнительный интерес — действующий командир части, майор Сьюзан Тернер. Именно майор Тернер выручила его, сообщая своим волнующим голосом по телефону ценную информацию, которая помогла Джеку Ричеру выпутаться из серьезных неприятностей. И вот теперь у него есть возможность поблагодарить коллегу лично. Вот только оказавшись в расположении части, Ричер узнает, что буквально на днях Сьюзан арестовали за получение крупной взятки. А его самого обвинили в убийстве шестнадцатилетней давности, о событиях которого он ничего не помнит. Странное совпадение или чей-то злой умысел? Возвращение в место, где когда-то было хорошо и относительно спокойно, оборачивается новыми неприятностями и приключениями.- -Качество видео: CamRip
Контейнер: AVI
Видео кодек: XviD
Аудио кодек: AC3
Видео: XviD, 720x304, 1648 kb/s
Аудио: 48 kHz, AC3 Dolby Digital, 2/0 (L,R) ch, ~192 kbps
Cубтитры: отсутствуют
Общее
Полное имя : D:\Джек.Ричер.2.Никогда.не.возвращайся.2016.CamRip.avi
Формат : AVI
Формат/Информация : Audio Video Interleave
Размер файла : 1,45 Гбайт
Продолжительность : 1 ч. 52 м.
Общий поток : 1851 Кбит/сек
Программа кодирования : VirtualDubMod 1.5.10.2 (build 2540/release)
Библиотека кодирования : VirtualDub build 32507/release
Видео
Идентификатор : 0
Формат : MPEG-4 Visual
Профиль формата : Advanced [email protected]
Параметр BVOP формата : 2
Параметр QPel формата : Нет
Параметр GMC формата : Без точки перехода
Параметр матрицы формата : Выборочная
Идентификатор кодека : XVID
Идентификатор кодека/Подсказка : XviD
Продолжительность : 1 ч. 52 м.
Битрейт : 1648 Кбит/сек
Ширина : 720 пикселей
Высота : 304 пикселя
Соотношение сторон : 2,35:1
Частота кадров : 29,970 кадров/сек
Цветовое пространство : YUV
Субдискретизация насыщенности : 4:2:0
Битовая глубина : 8 бит
Тип развёртки : Прогрессивная
Метод сжатия : С потерями
Бит/(Пиксели*Кадры) : 0.251
Размер потока : 1,29 Гбайт (89%)
Библиотека кодирования : XviD 1.2.1 (UTC 2008-12-04)
Аудио
Идентификатор : 1
Формат : AC-3
Формат/Информация : Audio Coding 3
Расширение режима : CM (complete main)
Параметр Endianness формата : Big
Идентификатор кодека : 2000
Продолжительность : 1 ч. 52 м.
Вид битрейта : Постоянный
Битрейт : 192 Кбит/сек
Каналы : 2 канала
Расположение каналов : Front: L R
Частота : 48,0 КГц
Метод сжатия : С потерями
Задержка видео : 7 мс.
Размер потока : 154 Мбайт (10%)
Выравнивание : Разделение по промежуткам
Продолжительность промежутка : 33 мс. (1,00 видеокадр)
Время предзагрузки промежутка : 500 мс.
Download / Скачать

Хотите скачать бесплатно? Зарегистрируйтесь на сайте (ссылка на регистрацию). Pirat.ca - самый быстрый торрент трекер в рунете!

Как скачивать  ·   Что такое торрент  ·   Рейтинг и ограничения

succube

Шкипер

Пост 22-Окт-2016 01:57 (спустя 3 часа)

[Q] 

Спасибо,наконец-то выложили,поддержу с раздачей
[Профиль]  [ЛС] 

swallow13

Штурман

Пост 22-Окт-2016 21:35 (спустя 19 часов)

[Q] 

Для камрипа качество смотрибельное. Спасибо!!!
[Профиль]  [ЛС] 

litti

Флибустьер

Пост 23-Окт-2016 01:23 (спустя 3 часа)

[Q] 

Одного не понимаю, как при современных телевизионных аппаратах, можно смотреть такое жуткое качество? Вопросы есть?… пиши в ЛС

_________________
Маньяком быть ты не обязан,
но сексуальным должен быть...
[Профиль]  [ЛС] 

usya5

Морской Волк

Пост 23-Окт-2016 10:19 (спустя 8 часов)

[Q] 

За релиз спасибо, но качество (....), что картинка, что звук, на память приходят только "Чужие" в ..90-х, с набрякшими подбородками))). Тогда качество камер было похуже))).
[Профиль]  [ЛС] 

bolin

Флибустьер

Пост 23-Окт-2016 20:51 (спустя 10 часов)

[Q] 

Спасибо за раздачу! Качество терпимое!
[Профиль]  [ЛС] 

Vasylii1

Лоцман

Пост 24-Окт-2016 07:49 (спустя 10 часов)

[Q] 

дайте оператору награду за эпилептический припадок продолжительностью в пол часа...
[Профиль]  [ЛС] 
Показать сообщения:    
Ответить на тему

Текущее время: Сегодня 21:58

Часовой пояс: GMT + 4



Вы не можете начинать темы
Вы не можете отвечать на сообщения
Вы не можете редактировать свои сообщения
Вы не можете удалять свои сообщения
Вы не можете голосовать в опросах
Вы не можете прикреплять файлы к сообщениям
Вы не можете скачивать файлы

▼ Вниз