ML
     
  Уважаемый Гость!
Вы можете поддержать проект и зарегистрироваться у наших партнеров - онлайн-стратегия MyLands. При регистрации в игре Вы получите код, который сможете активировать после регистрации на pirat.ca и получить 1000 дублонов.

Ваш код:
74c28610d77aaac24ba694c4128f3b9b46b04220
 
     

Джек Ричер 2: Никогда не возвращайся / Jack Reacher: Never Go Back (Эдвард Цвик / Edward Zwick) [2016 г., боевик, триллер, криминал, детектив, приключения, TS] Dub

Ответить на тему
 
Автор
Сообщение

Пост 25-Окт-2016 12:02

[Q] 

aleksey99

--Джек Ричер 2: Никогда не возвращайся / Jack Reacher: Never Go Back--«Не уступай, не сдавайся, не возвращайся»-- Производство: Китай, США, Huahua Film & Media Culture, Paramount Pictures, Shanghai Film Group
Год выпуска: 2016 г.
Жанр: боевик, триллер, криминал, детектив, приключения
Продолжительность: 01:52:19--Мировая премьера: 19 октября 2016
Российская премьера: 20 октября 2016, «Централ Партнершип»--Перевод: Профессиональный (полное дублирование)--Режиссер: Эдвард Цвик / Edward Zwick--В ролях: Том Круз, Коби Смолдерс, Роберт Неппер, Даника Ярош, Нинджа Н. Деву, Элдис Ходж, Холт МакКэллани, Мэдалин Хорчер, Чейз Савой, Сью-Линн Ансари--Описание: Экс-военный Джек Ричер приезжает в Вашингтон, чтобы впервые встретиться с майором Сьюзен Тернер, которая возглавила его бывшее подразделение и не раз выручала его в непростых ситуациях. По странному стечению обстоятельств буквально накануне его визита майора арестовывают по обвинению в измене… Ричеру, уверенному в невиновности Сьюзен, предстоит освободить ее и раскрыть заговор, ниточки которого тянутся на самый верх. Стремясь докопаться до правды, он также делает поразительное открытие, способное раз и навсегда изменить его жизнь…-- --Качество видео: TS
Контейнер: AVI
Видео кодек: XviD
Аудио кодек: AC3
Видео: 720x304 (2.37:1), 25 fps, XviD build 50 ~1719 kbps avg, 0.31 bit/pixel
Аудио: 48 kHz, AC3 Dolby Digital, 2/0 (L,R) ch, ~128 kbps
Cубтитры: отсутствуют.
Общее
Полное имя : H:\Torrent2\Jack.ReaCHeR.2.2O16.D.TS.14OOMB.avi
Формат : AVI
Формат/Информация : Audio Video Interleave
Размер файла : 1,46 Гбайт
Продолжительность : 1 ч. 52 м.
Общий поток : 1858 Кбит/сек
Программа кодирования : VirtualDubMod 1.5.10.2 (build 2540/release)
Библиотека кодирования : VirtualDubMod build 2540/release
Видео
Идентификатор : 0
Формат : MPEG-4 Visual
Профиль формата : Advanced [email protected]
Параметр BVOP формата : 2
Параметр QPel формата : Нет
Параметр GMC формата : Без точки перехода
Параметр матрицы формата : Default (MPEG)
Идентификатор кодека : XVID
Идентификатор кодека/Подсказка : XviD
Продолжительность : 1 ч. 52 м.
Битрейт : 1720 Кбит/сек
Ширина : 720 пикселей
Высота : 304 пикселя
Соотношение сторон : 2,35:1
Частота кадров : 25,000 кадров/сек
Цветовое пространство : YUV
Субдискретизация насыщенности : 4:2:0
Битовая глубина : 8 бит
Тип развёртки : Прогрессивная
Метод сжатия : С потерями
Бит/(Пиксели*Кадры) : 0.314
Размер потока : 1,35 Гбайт (93%)
Библиотека кодирования : XviD 1.2.1 (UTC 2008-12-04)
Аудио
Идентификатор : 1
Формат : AC-3
Формат/Информация : Audio Coding 3
Расширение режима : CM (complete main)
Параметр Endianness формата : Big
Идентификатор кодека : 2000
Продолжительность : 1 ч. 52 м.
Вид битрейта : Постоянный
Битрейт : 128 Кбит/сек
Каналы : 2 канала
Расположение каналов : Front: L R
Частота : 48,0 КГц
Частота кадров : 31,250 кадров/сек (1536 spf)
Метод сжатия : С потерями
Размер потока : 103 Мбайт (7%)
Выравнивание : Разделение по промежуткам
Продолжительность промежутка : 40 мс. (1,00 видеокадр)
Время предзагрузки промежутка : 500 мс.
ТрейлерПРИСУТСТВУЕТ РЕКЛАМА!
Download / Скачать

Хотите скачать бесплатно? Зарегистрируйтесь на сайте (ссылка на регистрацию). Pirat.ca - самый быстрый торрент трекер в рунете!

Как скачивать  ·   Что такое торрент  ·   Рейтинг и ограничения

zmaksimz

Корсар

Пост 25-Окт-2016 13:44 (спустя 1 час 42 минуты)

[Q] 

Автор Лови бочку
Но я лучше качество подожду
[Профиль]  [ЛС] 

OLEG_PS2009

Флибустьер

Пост 25-Окт-2016 13:51 (спустя 7 минут)

[Q] 

Возьму для ознакомления!!! Спасибо за оперативность)))
[Профиль]  [ЛС] 

ketzer

Морской Волк

Пост 28-Окт-2016 19:53 (спустя 3 дня)

[Q] 

Круз толстомордый!
Фильм не очень, первая часть была лучше и без соплей семейного характера.
[Профиль]  [ЛС] 

OLEG_PS2009

Флибустьер

Пост 29-Окт-2016 11:14 (спустя 15 часов)

[Q] 

Соглашусь с ketzer, фильм не особо впечатлил, ожидалось большего((((
[Профиль]  [ЛС] 
Показать сообщения:    
Ответить на тему

Текущее время: Сегодня 09:59

Часовой пояс: GMT + 4



Вы не можете начинать темы
Вы не можете отвечать на сообщения
Вы не можете редактировать свои сообщения
Вы не можете удалять свои сообщения
Вы не можете голосовать в опросах
Вы не можете прикреплять файлы к сообщениям
Вы не можете скачивать файлы

▼ Вниз