ML
     
  Уважаемый Гость!
Вы можете поддержать проект и зарегистрироваться у наших партнеров - онлайн-стратегия MyLands. При регистрации в игре Вы получите код, который сможете активировать после регистрации на pirat.ca и получить 1000 дублонов.

Ваш код:
2fd4e750dd89cae3a36ea360f2b345ccfeb562d3
 
     

Зачинщики / Masterminds (Джаред Хесс / Jared Hess) [2016 г., боевик, комедия, криминал, TS] VO [Дмитрий Пучков (Гоблин)]

Ответить на тему
 
Автор
Сообщение

Пост 26-Окт-2016 14:45

[Q] 

aleksey99

--Зачинщики / Masterminds--«А что бы ты делал с $17 миллионами?»-- Производство: США, Broadway Video, Michaels-Goldwyn, Relativity Media
Год выпуска: 2016 г.
Жанр: боевик, комедия, криминал
Продолжительность: 01:27:30--Мировая премьера: 28 сентября 2016
Российская премьера: 29 сентября 2016, «Парадиз»--Перевод: Одноголосый, закадровый (Дмитрий Пучков (Гоблин))--Режиссер: Джаред Хесс / Jared Hess--В ролях: Зак Галифианакис, Оуэн Уилсон, Кристен Уиг, Джейсон Судейкис, Кейт МакКиннон, Лесли Джонс, Мэри Элизабет Эллис, Кен Марино, Девин Рэтрей, Джон Дэйли--Описание: Бывший клерк банка вместе со своей любовницей проворачивает дерзкое ограбление инкассаторской машины и забирает 17 миллионов баксов. Но по неопытности преступники-дебютанты оставляют на месте преступления столько следов и улик, что вряд ли смогут получить удовольствие от добычи.-- --Качество видео: TS
Контейнер: AVI
Видео кодек: XviD
Аудио кодек: AC3
Видео: 720x384 (1.88:1), 29.970 fps, XviD build 67 ~2042 kbps avg, 0.25 bit/pixel
Аудио: 48 kHz, AC3 Dolby Digital, 2/0 (L,R) ch, ~192 kbps
Cубтитры: отсутствуют.
Общее
Полное имя : H:\Torrent2\Zachinshiki.avi
Формат : AVI
Формат/Информация : Audio Video Interleave
Размер файла : 1,37 Гбайт
Продолжительность : 1 ч. 27 м.
Общий поток : 2246 Кбит/сек
Библиотека кодирования : VirtualDub build 32817/release
Видео
Идентификатор : 0
Формат : MPEG-4 Visual
Профиль формата : [email protected]
Параметр BVOP формата : Нет
Параметр QPel формата : Нет
Параметр GMC формата : Без точки перехода
Параметр матрицы формата : Default (H.263)
Идентификатор кодека : XVID
Идентификатор кодека/Подсказка : XviD
Продолжительность : 1 ч. 27 м.
Битрейт : 2043 Кбит/сек
Ширина : 720 пикселей
Высота : 384 пикселя
Соотношение сторон : 1,85:1
Частота кадров : 29,970 (29970/1000) кадров/сек
Цветовое пространство : YUV
Субдискретизация насыщенности : 4:2:0
Битовая глубина : 8 бит
Тип развёртки : Прогрессивная
Метод сжатия : С потерями
Бит/(Пиксели*Кадры) : 0.247
Размер потока : 1,25 Гбайт (91%)
Библиотека кодирования : XviD 67
Аудио
Идентификатор : 1
Формат : AC-3
Формат/Информация : Audio Coding 3
Расширение режима : CM (complete main)
Параметр Endianness формата : Big
Идентификатор кодека : 2000
Продолжительность : 1 ч. 27 м.
Вид битрейта : Постоянный
Битрейт : 192 Кбит/сек
Каналы : 2 канала
Расположение каналов : Front: L R
Частота : 48,0 КГц
Частота кадров : 31,250 кадров/сек (1536 spf)
Метод сжатия : С потерями
Размер потока : 120 Мбайт (9%)
Выравнивание : Соединение по промежуткам
Продолжительность промежутка : 33 мс. (1,00 видеокадр)
Время предзагрузки промежутка : 512 мс.
Трейлер
Download / Скачать

Хотите скачать бесплатно? Зарегистрируйтесь на сайте (ссылка на регистрацию). Pirat.ca - самый быстрый торрент трекер в рунете!

Как скачивать  ·   Что такое торрент  ·   Рейтинг и ограничения

realyu

Корсар

Пост 27-Окт-2016 02:07 (спустя 11 часов)

[Q] 

Звук нормальный, к слышимости и чёткости никаких претензий, но вот закадровый смех раздражает маленько.
По стилистике фильм очень похож на комедии 80х-90х с Лесли Нильсеном, озвучка от гоблина ещё больше усиливает сходство - кино не про пёрнуть/подрочить/гомики (как все современные комедии), а про туповатых, но непосредственных, героев.
Кино не то, чтобы какое-то оригинальное или очень смешное, но ржачные моменты имеются, шутки не сортирные, актёры отработали нормалёк - без переигрывания и кривляний. И скучать не придётся - динамичная комедия, никакой "резины".
[Профиль]  [ЛС] 

ketzer

Морской Волк

Пост 27-Окт-2016 20:58 (спустя 18 часов)

[Q] 

Сюжет бредоватый, но фильм довольно смешной и милый. Актеры на уровне.
[Профиль]  [ЛС] 
Показать сообщения:    
Ответить на тему

Текущее время: Сегодня 14:11

Часовой пояс: GMT + 4



Вы не можете начинать темы
Вы не можете отвечать на сообщения
Вы не можете редактировать свои сообщения
Вы не можете удалять свои сообщения
Вы не можете голосовать в опросах
Вы не можете прикреплять файлы к сообщениям
Вы не можете скачивать файлы

▼ Вниз