ML
     
  Уважаемый Гость!
Вы можете поддержать проект и зарегистрироваться у наших партнеров - онлайн-стратегия MyLands. При регистрации в игре Вы получите код, который сможете активировать после регистрации на pirat.ca и получить 1000 дублонов.

Ваш код:
21acd5966619d49ad0b90c3305467b4646cc11a8
 
     

В постели с Викторией / Victoria (Жюстин Трие / Justine Triet) [2016 г., драма, мелодрама, комедия, TS] Dub

Ответить на тему
 
Автор
Сообщение

Пост 28-Окт-2016 11:25

[Q] 

kroxaBOOM

Легенда

В постели с Викторией / Victoria
-Информация о фильме
Год выхода: 2016
Жанр: драма, мелодрама, комедия
Режиссер: Жюстин Трие / Justine Triet
В ролях: Виржини Эфира, Венсан Лакост, Мельвиль Пупо, Лоран Пуатрено, Лорэ Кэлами, Alice Daquet, Жюли Мулье, Elsa Wolliaston, Софи Фийер, Liv Harari
Выпущено: Франция
Продолжительность: 01:33:03
Озвучивание: Профессиональное (многоголосое)-О фильме: Виктория пытается начать новую жизнь — взять себя в руки, разобраться с любовниками, больше спать и лучше питаться. Только вот бывший, обратившийся к ней за помощью, не помогает навести порядок. А другой возлюбленный, возомнивший себя популярным писателем, посвящает всю сеть в подробности ее интимной жизни.-
-
ПРИМЕЧАНИЕ: ПРИСУТСТВУЕТ РЕКЛАМА!-Файл
Формат: AVI (XviD)
Качество: TS
Видео: 720x288, 1627 kb/s, 29,970fps, Бит/Пиксели : 0.262
Аудио: AC3, 384 kb/s (2 ch), 48,0 kHz
Общее
Полное имя : G:\Раздачи\V.Krovate.S.Vikoy.2O16.D.TS.14OOMB.avi
Формат : AVI
Формат/Информация : Audio Video Interleave
Размер файла : 1,37 Гбайт
Продолжительность : 1 ч. 33 м.
Общий поток : 2103 Кбит/сек
Программа кодирования : VirtualDubMod 1.5.10.2 (build 2540/release)
Библиотека кодирования : VirtualDubMod build 2540/release
Видео
Идентификатор : 0
Формат : MPEG-4 Visual
Профиль формата : Advanced [email protected]
Параметр BVOP формата : 2
Параметр QPel формата : Нет
Параметр GMC формата : Без точки перехода
Параметр матрицы формата : Выборочная
Идентификатор кодека : XVID
Идентификатор кодека/Подсказка : XviD
Продолжительность : 1 ч. 33 м.
Битрейт : 1627 Кбит/сек
Ширина : 720 пикселей
Высота : 288 пикселей
Соотношение сторон : 2,500
Частота кадров : 29,970 (30000/1001) кадров/сек
Цветовое пространство : YUV
Субдискретизация насыщенности : 4:2:0
Битовая глубина : 8 бит
Тип развёртки : Прогрессивная
Метод сжатия : С потерями
Бит/(Пиксели*Кадры) : 0.262
Размер потока : 1,06 Гбайт (77%)
Библиотека кодирования : XviD 1.2.1 (UTC 2008-12-04)
Аудио
Идентификатор : 1
Формат : AC-3
Формат/Информация : Audio Coding 3
Расширение режима : CM (complete main)
Параметр Endianness формата : Big
Идентификатор кодека : 2000
Продолжительность : 1 ч. 33 м.
Вид битрейта : Постоянный
Битрейт : 384 Кбит/сек
Каналы : 2 канала
Расположение каналов : Front: L R
Частота : 48,0 КГц
Частота кадров : 31,250 кадров/сек (1536 spf)
Метод сжатия : С потерями
Размер потока : 256 Мбайт (18%)
Выравнивание : Разделение по промежуткам
-
Download / Скачать

Хотите скачать бесплатно? Зарегистрируйтесь на сайте (ссылка на регистрацию). Pirat.ca - самый быстрый торрент трекер в рунете!

Как скачивать  ·   Что такое торрент  ·   Рейтинг и ограничения



Последний раз редактировалось: kroxaBOOM (2016-10-28 13:22), всего редактировалось 1 раз

qwerty

Штурман

Пост 05-Ноя-2016 13:46 (спустя 8 дней)

[Q] 

баба трахалась с несколькими и чему-то еще удивляется?
[Профиль]  [ЛС] 
Показать сообщения:    
Ответить на тему

Текущее время: Сегодня 23:16

Часовой пояс: GMT + 4



Вы не можете начинать темы
Вы не можете отвечать на сообщения
Вы не можете редактировать свои сообщения
Вы не можете удалять свои сообщения
Вы не можете голосовать в опросах
Вы не можете прикреплять файлы к сообщениям
Вы не можете скачивать файлы

▼ Вниз