ML
     
  Уважаемый Гость!
Вы можете поддержать проект и зарегистрироваться у наших партнеров - онлайн-стратегия MyLands. При регистрации в игре Вы получите код, который сможете активировать после регистрации на pirat.ca и получить 1000 дублонов.

Ваш код:
ec3b26eefbcdc72e08e9fd33c6846bb2ca10f8b1
 
     

Макс Стил / Max Steel (Стюарт Хендлер / Stewart Hendler) [2016 г., фантастика, боевик, приключения, CAMRip] Dub

Ответить на тему
 
Автор
Сообщение

Пост 28-Окт-2016 11:40

[Q] 

kroxaBOOM

Легенда

Макс Стил / Max Steel
-Информация о фильме
Год выхода: 2016
Жанр: фантастика, боевик, приключения
Режиссер: Стюарт Хендлер / Stewart Hendler
В ролях: Бен Уинчелл, Джош Бренер, Мария Белло, Энди Гарсиа, Ана Виллафейн, Майк Дойл, Филлип ДеВона, Билли Слотер, Эл Митчелл, Лоуренс Као
Выпущено: Великобритания, США
Продолжительность: 01:26:26
Озвучивание: Дублированное-О фильме: Когда подросток Макс МакГрат обнаруживает, что его тело может генерировать наиболее мощную энергию во Вселенной, ему приходится встретиться с единственным существом, способным совладать с такой энергией — таинственным техно-органическим инопланетянином по имени Стил.- -ПРИМЕЧАНИЕ: ПРИСУТСТВУЕТ РЕКЛАМА!-Файл
Формат: AVI (XviD)
Качество: CAMRip
Видео: 720x304. 1870 kb/s, 25,000fps, Бит/Пиксели : 0.358
Звук: AC3, 384 kb/s (2 ch) 48,0 kHz ,
Общее
Полное имя : G:\Раздачи\Maks.CteLL.2O16.D.CAMRip.14OOMB.avi
Формат : AVI
Формат/Информация : Audio Video Interleave
Размер файла : 1,37 Гбайт
Продолжительность : 1 ч. 26 м.
Общий поток : 2264 Кбит/сек
Программа кодирования : VirtualDubMod 1.5.10.2 (build 2540/release)
Библиотека кодирования : VirtualDubMod build 2540/release
Видео
Идентификатор : 0
Формат : MPEG-4 Visual
Профиль формата : Advanced [email protected]
Параметр BVOP формата : 2
Параметр QPel формата : Нет
Параметр GMC формата : Без точки перехода
Параметр матрицы формата : Выборочная
Идентификатор кодека : XVID
Идентификатор кодека/Подсказка : XviD
Продолжительность : 1 ч. 26 м.
Продолжительность оригинала : 53 м. 45 с.
Битрейт : 1959 Кбит/сек
Ширина : 720 пикселей
Высота : 304 пикселя
Соотношение сторон : 2,35:1
Частота кадров : 25,000 кадров/сек
Цветовое пространство : YUV
Субдискретизация насыщенности : 4:2:0
Битовая глубина : 8 бит
Тип развёртки : Прогрессивная
Метод сжатия : С потерями
Бит/(Пиксели*Кадры) : 0.358
Размер потока : 753 Мбайт (54%)
Библиотека кодирования : XviD 1.2.1 (UTC 2008-12-04)
Аудио
Идентификатор : 1
Формат : AC-3
Формат/Информация : Audio Coding 3
Расширение режима : CM (complete main)
Параметр Endianness формата : Big
Идентификатор кодека : 2000
Продолжительность : 1 ч. 26 м.
Продолжительность оригинала : 53 м. 45 с.
Вид битрейта : Постоянный
Битрейт : 384 Кбит/сек
Каналы : 2 канала
Расположение каналов : Front: L R
Частота : 48,0 КГц
Частота кадров : 31,250 кадров/сек (1536 spf)
Метод сжатия : С потерями
Размер потока : 148 Мбайт (11%)
Выравнивание : Разделение по промежуткам
Продолжительность промежутка : 40 мс. (1,00 видеокадр)
Время предзагрузки промежутка : 500 мс.
-
Download / Скачать

Хотите скачать бесплатно? Зарегистрируйтесь на сайте (ссылка на регистрацию). Pirat.ca - самый быстрый торрент трекер в рунете!

Как скачивать  ·   Что такое торрент  ·   Рейтинг и ограничения



Последний раз редактировалось: kroxaBOOM (2016-10-28 13:19), всего редактировалось 2 раз(а)

bolin

Флибустьер

Пост 28-Окт-2016 19:54 (спустя 8 часов)

[Q] 

Спасибо! Забираю!
[Профиль]  [ЛС] 

kroxaBOOM ®

Легенда

8508

Пост 28-Окт-2016 21:15 (спустя 1 час 20 минут)

[Q] 

771054Спасибо! Забираю!
Спасибо за Спасибо

_________________
[Профиль]  [ЛС] 

Doctor Obnoxius

Юнга

Пост 28-Окт-2016 21:36 (спустя 20 минут)

[Q] 

Под пивас пойдёт!
[Профиль]  [ЛС] 
Показать сообщения:    
Ответить на тему

Текущее время: Сегодня 03:51

Часовой пояс: GMT + 4



Вы не можете начинать темы
Вы не можете отвечать на сообщения
Вы не можете редактировать свои сообщения
Вы не можете удалять свои сообщения
Вы не можете голосовать в опросах
Вы не можете прикреплять файлы к сообщениям
Вы не можете скачивать файлы

▼ Вниз