ML
     
  Уважаемый Гость!
Вы можете поддержать проект и зарегистрироваться у наших партнеров - онлайн-стратегия MyLands. При регистрации в игре Вы получите код, который сможете активировать после регистрации на pirat.ca и получить 1000 дублонов.

Ваш код:
bc31d8aef74c92e19ad67e34a8fa63c3b9b812fb
 
     

Доктор Стрэндж / Doctor Strange (Скотт Дерриксон / Scott Derrickson) [2016 г., фантастика, фэнтези, боевик, приключения, CAMRip] Dub

Ответить на тему
 
Автор
Сообщение

Пост 29-Окт-2016 12:25

[Q] 

kroxaBOOM

Легенда

Доктор Стрэндж / Doctor Strange- Информация о фильме
Страна: США
Год выхода: 2016
Жанр: фантастика, фэнтези, боевик, приключения
Продолжительность: 01:32:29
Режиссер: Скотт Дерриксон / Scott Derrickson
В ролях: Бенедикт Камбербэтч, Тильда Суинтон, Мадс Миккельсен, Чиветель Эджиофор, Рэйчел МакАдамс, Бенедикт Вонг, Майкл Стулбарг, Бенджамин Брэтт, Скотт Эдкинс, Зара Питиан
Перевод: Дубляж-О фильме:
Страшная автокатастрофа поставила крест на карьере успешного нейрохирурга Доктора Стрэнджа. Отчаявшись, он отправляется в путешествие в поисках исцеления и открывает в себе невероятные способности к трансформации пространства и времени. Теперь он — связующее звено между параллельными измерениями, а его миссия — защищать жителей Земли и противодействовать Злу, какое бы обличие оно ни принимало.- -Качество: CAMRip
Формат: АVI
Видео кодек: XviD
Аудио кодек: АС3
Видео: 720x304 (2.35:1), 30.000 fps, XviD ~1 710 kbps avg, 0.260 bit/pixel
Аудио: 48 kHz, AC3 Dolby Digital, 2/0 (L,R) ch, ~192 kbps
Общее
Полное имя : G:\Раздачи\Doctor.Strang.2O16.D.CAMRip.PROPER.14OOMB.avi
Формат : AVI
Формат/Информация : Audio Video Interleave
Размер файла : 1,46 Гбайт
Продолжительность : 1 ч. 49 м.
Общий поток : 1913 Кбит/сек
Программа кодирования : VirtualDubMod 1.5.10.2 (build 2540/release)
Библиотека кодирования : VirtualDubMod build 2540/release
Видео
Идентификатор : 0
Формат : MPEG-4 Visual
Профиль формата : Advanced [email protected]
Параметр BVOP формата : 2
Параметр QPel формата : Нет
Параметр GMC формата : Без точки перехода
Параметр матрицы формата : Выборочная
Идентификатор кодека : XVID
Идентификатор кодека/Подсказка : XviD
Продолжительность : 1 ч. 49 м.
Битрейт : 1710 Кбит/сек
Ширина : 720 пикселей
Высота : 304 пикселя
Соотношение сторон : 2,35:1
Частота кадров : 30,000 кадров/сек
Цветовое пространство : YUV
Субдискретизация насыщенности : 4:2:0
Битовая глубина : 8 бит
Тип развёртки : Прогрессивная
Метод сжатия : С потерями
Бит/(Пиксели*Кадры) : 0.260
Размер потока : 1,30 Гбайт (89%)
Библиотека кодирования : XviD 1.2.1 (UTC 2008-12-04)
Аудио
Идентификатор : 1
Формат : AC-3
Формат/Информация : Audio Coding 3
Расширение режима : CM (complete main)
Параметр Endianness формата : Big
Идентификатор кодека : 2000
Продолжительность : 1 ч. 49 м.
Вид битрейта : Постоянный
Битрейт : 192 Кбит/сек
Каналы : 2 канала
Расположение каналов : Front: L R
Частота : 48,0 КГц
Частота кадров : 31,250 кадров/сек (1536 spf)
Метод сжатия : С потерями
Размер потока : 150 Мбайт (10%)
Выравнивание : Разделение по промежуткам
Продолжительность промежутка : 33 мс. (1,00 видеокадр)
Время предзагрузки промежутка : 500 мс.
-Раздача обновлена. Картинка теперь не дергается.
Download / Скачать

Хотите скачать бесплатно? Зарегистрируйтесь на сайте (ссылка на регистрацию). Pirat.ca - самый быстрый торрент трекер в рунете!

Как скачивать  ·   Что такое торрент  ·   Рейтинг и ограничения



Последний раз редактировалось: kroxaBOOM (2016-11-01 18:46), всего редактировалось 5 раз(а)

dea

Лоцман

Пост 29-Окт-2016 22:42 (спустя 10 часов)

[Q] 

Только у меня адски дергается изображение весь фильм?
[Профиль]  [ЛС] 

div4ik

Лоцман

Пост 29-Окт-2016 23:04 (спустя 22 минуты)

[Q] 

Очень интересно! Как и чем снимали такое видео?
[Профиль]  [ЛС] 

kroxaBOOM ®

Легенда

8702

Пост 29-Окт-2016 23:38 (спустя 34 минуты)

[Q] 

771249Только у меня адски дергается изображение весь фильм?
Нет. Запись сама по себе такая.
Прежде чем качать лучше глянуть

_________________
[Профиль]  [ЛС] 

Towelie

Корсар

13

Пост 30-Окт-2016 05:38 (спустя 6 часов)

[Q] 

спасибо за релиз,когда ждать качество?
Лови бочку
Добавлено спустя 35 минут 33 секунды:
пс:смотреть,к сожалению,почти нереально - сильно дёргается изображение +реклама
[Профиль]  [ЛС] 

termometr

Лоцман

Пост 30-Окт-2016 21:38 (спустя 15 часов)

[Q] 

ужассс...... не посмотриш качество г***о
[Профиль]  [ЛС] 

bolin

Флибустьер

Пост 30-Окт-2016 23:41 (спустя 2 часа 3 минуты)

[Q] 

После такого мигания глазки можно выбросить в мусорку! Трафик потрачен зря! Отказать
[Профиль]  [ЛС] 

GLide

Шкипер

116

Пост 31-Окт-2016 14:25 (спустя 14 часов)

[Q] 

Снято камерой во время 3D сеанса, для затворных очков - оттуда и мерцание :((

_________________
[Профиль]  [ЛС] 

canek

Корсар

Пост 31-Окт-2016 22:05 (спустя 7 часов)

[Q] 

не портите себе впечатление от фильма!! сходите в кинотеатр (этот фильм надо смотреть только в 3D ИМХО) или ждите качества
фильм просто бомба

_________________
[/URL]
[Профиль]  [ЛС] 

studentUA

Корсар

56

Пост 31-Окт-2016 22:34 (спустя 29 минут)

[Q] 

771521не портите себе впечатление от фильма!! сходите в кинотеатр (этот фильм надо смотреть только в 3D ИМХО) или ждите качества
фильм просто бомба Всем качать!!!
Таки да, был вчера в кино, фильм классный, дождитесь нормального качества или сходите в кино, а то испортите впечатление от фильма.
[Профиль]  [ЛС] 

Samkato

Штурман

Пост 01-Ноя-2016 02:24 (спустя 3 часа)

[Q] 

смотрел фильм, по 10 бальной шкале на 5, многое в фильме не раскрыто, эффекты хороши, автору спасибо но качество смотреть не реально
[Профиль]  [ЛС] 

kroxaBOOM ®

Легенда

8702

Пост 01-Ноя-2016 18:49 (спустя 16 часов)

[Q] 

Раздача обновлена. Картинка теперь не дергается.Прежде чем качать рекомендую глянуть

_________________
[Профиль]  [ЛС] 
Показать сообщения:    
Ответить на тему

Текущее время: Сегодня 12:03

Часовой пояс: GMT + 4



Вы не можете начинать темы
Вы не можете отвечать на сообщения
Вы не можете редактировать свои сообщения
Вы не можете удалять свои сообщения
Вы не можете голосовать в опросах
Вы не можете прикреплять файлы к сообщениям
Вы не можете скачивать файлы

▼ Вниз