ML
     
  Уважаемый Гость!
Вы можете поддержать проект и зарегистрироваться у наших партнеров - онлайн-стратегия MyLands. При регистрации в игре Вы получите код, который сможете активировать после регистрации на pirat.ca и получить 1000 дублонов.

Ваш код:
59354507ba913a0948d1a8f2e30f2e04c4cd7b9b
 
     

Расплата / The Accountant (Гэвин О’Коннор / Gavin O'Connor) [2016 г., боевик, триллер, драма, криминал, TS] Dub

Ответить на тему
 
Автор
Сообщение

Пост 30-Окт-2016 14:21

[Q] 

kroxaBOOM

Легенда

Расплата / The Accountant- Информация о фильме
Выпущено: США
Год выхода: 2016
Жанр: боевик, триллер, драма, криминал
Продолжительность: 02:03:36
Перевод: Профессиональный (дублирование)
Режиссер: Гэвин О’Коннор / Gavin O'Connor
В ролях: Бен Аффлек, Анна Кендрик, Дж.К. Симмонс, Джон Бернтал, Джеффри Тэмбор, Синтия Аддай-Робинсон, Джон Литгоу, Джин Смарт, Энди Умбергер, Элисон Райт-О фильме: Лента расскажет историю математического гения Кристиана Вульфа, который подрабатывает аудитором для самых опасных преступных организаций. Когда ему «на хвост» садится отдел по борьбе с преступностью Министерства финансов во главе с Рэем Кингом Кристиан решает найти себе законопослушного клиента и проводит аудит в компании по производству новейшей робототехники, где сотрудница финансового отдела обнаружила «нестыковочку» в миллионы долларов. Но стоит Кристиану взяться за счета и выйти на след, как в деле начинают появляться жертвы.- -ПРИМЕЧАНИЕ: ПРИСУТСТВУЕТ РЕКЛАМА! Не хватает около 3-х минут перевода.-Файл
Формат: AVI (XviD)
Качество: TS
Видео:XVID, 1444 kb/s, 720x304 (2,35:1), 29,970 fps, 0.220 bit/pixel
Аудио:48,0 kHz, AC3, 128 kb/s (2 ch),
Общее
Полное имя : G:\Раздачи\RaspLatta.2O16.D.TS.14OOMB.avi
Формат : AVI
Формат/Информация : Audio Video Interleave
Размер файла : 1,37 Гбайт
Продолжительность : 2 ч. 3 м.
Общий поток : 1583 Кбит/сек
Программа кодирования : VirtualDubMod 1.5.10.2 (build 2540/release)
Библиотека кодирования : VirtualDubMod build 2540/release
Видео
Идентификатор : 0
Формат : MPEG-4 Visual
Профиль формата : Advanced [email protected]
Параметр BVOP формата : 2
Параметр QPel формата : Нет
Параметр GMC формата : Без точки перехода
Параметр матрицы формата : Default (MPEG)
Идентификатор кодека : XVID
Идентификатор кодека/Подсказка : XviD
Продолжительность : 2 ч. 3 м.
Битрейт : 1444 Кбит/сек
Ширина : 720 пикселей
Высота : 304 пикселя
Соотношение сторон : 2,35:1
Частота кадров : 29,970 (30000/1001) кадров/сек
Цветовое пространство : YUV
Субдискретизация насыщенности : 4:2:0
Битовая глубина : 8 бит
Тип развёртки : Прогрессивная
Метод сжатия : С потерями
Бит/(Пиксели*Кадры) : 0.220
Размер потока : 1,25 Гбайт (91%)
Библиотека кодирования : XviD 1.2.1 (UTC 2008-12-04)
Аудио
Идентификатор : 1
Формат : AC-3
Формат/Информация : Audio Coding 3
Расширение режима : CM (complete main)
Параметр Endianness формата : Big
Идентификатор кодека : 2000
Продолжительность : 2 ч. 3 м.
Вид битрейта : Постоянный
Битрейт : 128 Кбит/сек
Каналы : 2 канала
Расположение каналов : Front: L R
Частота : 48,0 КГц
Частота кадров : 31,250 кадров/сек (1536 spf)
Метод сжатия : С потерями
Размер потока : 113 Мбайт (8%)
Выравнивание : Разделение по промежуткам
Продолжительность промежутка : 33 мс. (1,00 видеокадр)
Время предзагрузки промежутка : 500 мс.
-
Download / Скачать

Хотите скачать бесплатно? Зарегистрируйтесь на сайте (ссылка на регистрацию). Pirat.ca - самый быстрый торрент трекер в рунете!

Как скачивать  ·   Что такое торрент  ·   Рейтинг и ограничения



Последний раз редактировалось: kroxaBOOM (2016-10-30 17:07), всего редактировалось 2 раз(а)

rsel

Морской Волк

Пост 30-Окт-2016 20:32 (спустя 6 часов)

[Q] 

СУПЕР! БАРЕЛЬ ПИВА АВТОРУ РАЗДАЧИ! Лови бочку
[Профиль]  [ЛС] 

bolin

Флибустьер

Пост 30-Окт-2016 22:57 (спустя 2 часа 24 минуты)

[Q] 

Автор лови Лови бочку
[Профиль]  [ЛС] 

@tom

Юнга

Пост 31-Окт-2016 00:11 (спустя 1 час 13 минут)

[Q] 

за скорость Лови бочку
[Профиль]  [ЛС] 

sergein

Корсар

Пост 31-Окт-2016 01:33 (спустя 1 час 22 минуты)

[Q] 

КРАСАВЧИК Супер!
[Профиль]  [ЛС] 

VNXX

Корсар

Пост 01-Ноя-2016 00:54 (спустя 23 часа)

[Q] 

Автору респект!!! Качество норм. Автору спс.
[Профиль]  [ЛС] 

Max72

Штурман

Пост 01-Ноя-2016 19:56 (спустя 19 часов)

[Q] 

Спасибо!!! Лови бочку
[Профиль]  [ЛС] 

usya5

Морской Волк

Пост 02-Ноя-2016 22:42 (спустя 1 день 2 часа)

[Q] 

Качество, вроде, ничего - будем качать.
Лови бочку
[Профиль]  [ЛС] 

realyu

Корсар

Пост 03-Ноя-2016 00:15 (спустя 1 час 32 минуты)

[Q] 

Перевода не 3, а 7 минут не хватает - с начала фильма. Что, в принципе, абсолютно ни на что не влияет.
Фильм - недотриллер, недобоевик, недоэкшен. От всего по чуть-чуть, но ни до одного не дотягивает. По сути - стандартный боевик с не убиваемым героем (Рембо, Коммандо, Бонд и т.д.), наложенный на глупую семейную драму из индийского кино.
И да, насколько знаю - аутизмом нельзя быть "немножечко беременным". Либо аут, либо нет. У ГГ же уход в астрал происходит периодически.
"На троечку" кино: не посмотришь - ничего не потеряешь, а посмотришь - к утру из головы выветрится уже.
[Профиль]  [ЛС] 

ketzer

Морской Волк

Пост 03-Ноя-2016 19:47 (спустя 19 часов)

[Q] 

Хороший фильм. Смотреть лучше в кино.
[Профиль]  [ЛС] 

smediks

Шкипер

Пост 03-Ноя-2016 23:21 (спустя 3 часа)

[Q] 

Не плохой фильм! особенно если сравнивать с общей массой выпускаемого кино мусора, посмотреть чтоб скоротать время стоит точно)))
[Профиль]  [ЛС] 

lightmaster

Флибустьер

Пост 06-Ноя-2016 17:38 (спустя 2 дня 18 часов)

[Q] 

Не плохой фильм, лучше посмотреть сразу! Лови бочку
[Профиль]  [ЛС] 
Показать сообщения:    
Ответить на тему

Текущее время: Сегодня 16:07

Часовой пояс: GMT + 4



Вы не можете начинать темы
Вы не можете отвечать на сообщения
Вы не можете редактировать свои сообщения
Вы не можете удалять свои сообщения
Вы не можете голосовать в опросах
Вы не можете прикреплять файлы к сообщениям
Вы не можете скачивать файлы

▼ Вниз