ML
     
  Уважаемый Гость!
Вы можете поддержать проект и зарегистрироваться у наших партнеров - онлайн-стратегия MyLands. При регистрации в игре Вы получите код, который сможете активировать после регистрации на pirat.ca и получить 1000 дублонов.

Ваш код:
dbd0d701284cde74a1f34d06ce20b7bc75a73e75
 
     

Рождение нации / The Birth of a Nation (Нэйт Паркер / Nate Parker) [2016 г., драма, биография, история, CamRip, ] MVO (КОЛОБОК)

Ответить на тему
 
Автор
Сообщение

Пост 01-Ноя-2016 12:35

[Q] 

kroxaBOOM

Легенда

-Рождение нации / The Birth of a Nation-- Производство: США, Argent Pictures, Juniper Productions, Mandalay Pictures, Oster Media, Point Made Films, Tiny Giant Entertainment
Год выпуска: 2016 г.
Жанр: драма, биография, история
Продолжительность: 01:54:28
Мировая премьера: 25 января 2016
Российская премьера: 19 января 2017, «Двадцатый Век Фокс СНГ»
Перевод: Любительский (многоголосый, закадровый) [КОЛОБОК]
Режиссер: Нэйт Паркер / Nate Parker-В ролях: Нэйт Паркер, Арми Хаммер, Пенелопа Энн Миллер, Джеки Эрл Хейли, Марк Бун Джуниор, Колман Доминго, Онжаню Эллис, Дуайт Генри-Описание: Историко-драматический байопик о чернокожем рабе-мятежнике Нэте Тёрнере. Веря в свою богоизбранность, Тёрнер воспринимает затмение как знак свыше: чёрная ладонь накрывает солнце. Под его предводительством вспыхивает восстание, потрясшее рабовладельческую Америку...-
Качество видео: CamRip
Контейнер: AVI
Видео кодек: XviD
Аудио кодек: AC3
Видео: 720x304 (2.35:1), 29.970 fps, XviD ~1 683 kbps avg, 0.257bit/pixel
Аудио: 48 kHz, AC3 Dolby Digital, 2/0 (L,R) ch, ~128 kbps
Cубтитры: отсутствуют
Общее
Полное имя : D:\кино\The.Birth.of.a.Nation.2016.P.CAMRip.14OOMB_KOSHARA.avi
Формат : AVI
Формат/Информация : Audio Video Interleave
Размер файла : 1,46 Гбайт
Продолжительность : 1 ч. 54 м.
Общий поток : 1822 Кбит/сек
Программа кодирования : VirtualDubMod 1.5.10.2 (build 2540/release)
Библиотека кодирования : VirtualDubMod build 2540/release
Видео
Идентификатор : 0
Формат : MPEG-4 Visual
Профиль формата : Advanced [email protected]
Параметр BVOP формата : 2
Параметр QPel формата : Нет
Параметр GMC формата : Без точки перехода
Параметр матрицы формата : Выборочная
Идентификатор кодека : XVID
Идентификатор кодека/Подсказка : XviD
Продолжительность : 1 ч. 54 м.
Битрейт : 1683 Кбит/сек
Ширина : 720 пикселей
Высота : 304 пикселя
Соотношение сторон : 2,35:1
Частота кадров : 29,970 (30000/1001) кадров/сек
Цветовое пространство : YUV
Субдискретизация насыщенности : 4:2:0
Битовая глубина : 8 бит
Тип развёртки : Прогрессивная
Метод сжатия : С потерями
Бит/(Пиксели*Кадры) : 0.257
Размер потока : 1,35 Гбайт (92%)
Библиотека кодирования : XviD 1.2.1 (UTC 2008-12-04)
Аудио
Идентификатор : 1
Формат : AC-3
Формат/Информация : Audio Coding 3
Расширение режима : CM (complete main)
Параметр Endianness формата : Big
Идентификатор кодека : 2000
Продолжительность : 1 ч. 54 м.
Вид битрейта : Постоянный
Битрейт : 128 Кбит/сек
Каналы : 2 канала
Расположение каналов : Front: L R
Частота : 48,0 КГц
Частота кадров : 31,250 кадров/сек (1536 spf)
Метод сжатия : С потерями
Размер потока : 105 Мбайт (7%)
Выравнивание : Разделение по промежуткам
Продолжительность промежутка : 33 мс. (1,00 видеокадр)
Время предзагрузки промежутка : 500 мс.
Download / Скачать

Хотите скачать бесплатно? Зарегистрируйтесь на сайте (ссылка на регистрацию). Pirat.ca - самый быстрый торрент трекер в рунете!

Как скачивать  ·   Что такое торрент  ·   Рейтинг и ограничения

MaK1auD

Мичман

Пост 02-Ноя-2016 09:44 (спустя 21 час)

[Q] 

xD "Вырождение нации: Восстание планеты обезьян" )) Типичный американский бред.
[Профиль]  [ЛС] 
Показать сообщения:    
Ответить на тему

Текущее время: Сегодня 18:30

Часовой пояс: GMT + 4



Вы не можете начинать темы
Вы не можете отвечать на сообщения
Вы не можете редактировать свои сообщения
Вы не можете удалять свои сообщения
Вы не можете голосовать в опросах
Вы не можете прикреплять файлы к сообщениям
Вы не можете скачивать файлы

▼ Вниз