ML
     
  Уважаемый Гость!
Вы можете поддержать проект и зарегистрироваться у наших партнеров - онлайн-стратегия MyLands. При регистрации в игре Вы получите код, который сможете активировать после регистрации на pirat.ca и получить 1000 дублонов.

Ваш код:
69f316be79867e9bf99caee9682d20bb11964507
 
     

Я, Дэниел Блэйк / I, Daniel Blake (Кен Лоуч / Ken Loach) [2016 г., драма, CamRip] Dub

Ответить на тему
 
Автор
Сообщение

Пост 03-Ноя-2016 13:34

[Q] 

kroxaBOOM

Легенда

-Я, Дэниел Блэйк / I, Daniel Blake-- Производство: Великобритания, Франция, Бельгия, BBC, Les Films du Fleuve, BFI, Sixteen Films, Wild Bunch
Год выпуска: 2016 г.
Жанр: драма
Продолжительность: 01:36:50
Мировая премьера: 13 мая 2016 Франция Каннский кинофестиваль
Российская премьера: 27 октября 2016, «Cinema Prestige
Перевод: Профессиональный (полное дублирование)
Режиссер: Кен Лоуч / Ken Loach-В ролях: Дэйв Джонс, Хейли Сквайрс, Шэрон Перси, Бриана Шенн, Дилан Маккирнан, Натали Энн Джеймисон, Марк Бёрнс, Колин Кумбс, Харриет Гост-Описание: Дэниел Блэйк — недавно овдовевший бездетный работяга, из-за проблем со здоровьем потерявший последнее, что у него было — возможность зарабатывать себе на жизнь. Блэйк вынужден обратиться за помощью к государству и подать документы на получение пособия. На деле оказывается, что сделать это для пожилого мужчины не проще, чем доказать теорему Ферма: процесс подачи заявления полностью автоматизирован, а Блэйк в жизни не держал в руках ни смартфона, ни компьютерной мыши — только молоток...-
Качество видео: CamRip
Контейнер: AVI
Видео кодек: XviD
Аудио кодек: AC3
Видео: 720x256 (2.813), 29.970 fps, XviD ~1 817 kbps avg,0.329 bit/pixel
Аудио: 48 kHz, AC3 Dolby Digital, 2/0 (L,R) ch, ~192 kbps
Cубтитры: отсутствуют
Общее
Полное имя : G:\Раздачи\I.Daniel.Blake.2O16.D.CAMRip.14OOMB.avi
Формат : AVI
Формат/Информация : Audio Video Interleave
Размер файла : 1,37 Гбайт
Продолжительность : 1 ч. 36 м.
Общий поток : 2021 Кбит/сек
Программа кодирования : VirtualDubMod 1.5.10.2 (build 2540/release)
Библиотека кодирования : VirtualDubMod build 2540/release
Видео
Идентификатор : 0
Формат : MPEG-4 Visual
Профиль формата : Advanced [email protected]
Параметр BVOP формата : 2
Параметр QPel формата : Нет
Параметр GMC формата : Без точки перехода
Параметр матрицы формата : Выборочная
Идентификатор кодека : XVID
Идентификатор кодека/Подсказка : XviD
Продолжительность : 1 ч. 36 м.
Битрейт : 1817 Кбит/сек
Ширина : 720 пикселей
Высота : 256 пикселей
Соотношение сторон : 2,813
Частота кадров : 29,970 (30000/1001) кадров/сек
Цветовое пространство : YUV
Субдискретизация насыщенности : 4:2:0
Битовая глубина : 8 бит
Тип развёртки : Прогрессивная
Метод сжатия : С потерями
Бит/(Пиксели*Кадры) : 0.329
Размер потока : 1,23 Гбайт (90%)
Библиотека кодирования : XviD 1.2.1 (UTC 2008-12-04)
Аудио
Идентификатор : 1
Формат : AC-3
Формат/Информация : Audio Coding 3
Расширение режима : CM (complete main)
Параметр Endianness формата : Big
Идентификатор кодека : 2000
Продолжительность : 1 ч. 36 м.
Вид битрейта : Постоянный
Битрейт : 192 Кбит/сек
Каналы : 2 канала
Расположение каналов : Front: L R
Частота : 48,0 КГц
Частота кадров : 31,250 кадров/сек (1536 spf)
Битовая глубина : 16 бит
Метод сжатия : С потерями
Размер потока : 133 Мбайт (10%)
Выравнивание : Разделение по промежуткам
Продолжительность промежутка : 33 мс. (1,00 видеокадр)
Время предзагрузки промежутка : 500 мс.
Download / Скачать

Хотите скачать бесплатно? Зарегистрируйтесь на сайте (ссылка на регистрацию). Pirat.ca - самый быстрый торрент трекер в рунете!

Как скачивать  ·   Что такое торрент  ·   Рейтинг и ограничения

Показать сообщения:    
Ответить на тему

Текущее время: Сегодня 14:33

Часовой пояс: GMT + 4



Вы не можете начинать темы
Вы не можете отвечать на сообщения
Вы не можете редактировать свои сообщения
Вы не можете удалять свои сообщения
Вы не можете голосовать в опросах
Вы не можете прикреплять файлы к сообщениям
Вы не можете скачивать файлы

▼ Вниз