ML
     
  Уважаемый Гость!
Вы можете поддержать проект и зарегистрироваться у наших партнеров - онлайн-стратегия MyLands. При регистрации в игре Вы получите код, который сможете активировать после регистрации на pirat.ca и получить 1000 дублонов.

Ваш код:
93dbf9fbdfa06c41d3b5a2c3921149ba36168c41
 
     

Доктор Стрэндж / Doctor Strange (Скотт Дерриксон / Scott Derrickson) [2016 г., фантастика, фэнтези, боевик, приключения, TS] Dub

Ответить на тему
 
Автор
Сообщение

Пост 03-Ноя-2016 15:04

[Q] 

aleksey99

--Доктор Стрэндж / Doctor Strange--«За гранью сознания лежит новая реальность»-- Производство: США, Marvel Studios Inc., Walt Disney Studios Motion Pictures
Год выпуска: 2016 г.
Жанр: фантастика, фэнтези, боевик, приключения
Продолжительность: 01:47:23--Мировая премьера: 20 октября 2016
Российская премьера: 31 октября 2016, «WDSSPR»--Перевод: Профессиональный (полное дублирование)--Режиссер: Скотт Дерриксон / Scott Derrickson--В ролях: Бенедикт Камбербэтч, Тильда Суинтон, Мадс Миккельсен, Чиветел Эджиофор, Рэйчел МакАдамс, Бенедикт Вонг, Майкл Стулбарг, Бенджамин Брэтт, Скотт Эдкинс, Зара Питиан--Описание: Страшная автокатастрофа поставила крест на карьере успешного нейрохирурга Доктора Стрэнджа. Отчаявшись, он отправляется в путешествие в поисках исцеления и открывает в себе невероятные способности к трансформации пространства и времени. Теперь он — связующее звено между параллельными измерениями, а его миссия — защищать жителей Земли и противодействовать Злу, какое бы обличие оно ни принимало.-- --Качество видео: TS
Контейнер: AVI
Видео кодек: XviD
Аудио кодек: AC3
Видео: 720x352 (2.05:1), 29.970 fps, XviD build 50 ~1619 kbps avg, 0.21 bit/pixel
Аудио: 48 kHz, AC3 Dolby Digital, 2/0 (L,R) ch, ~192 kbps
Cубтитры: отсутствуют.
Общее
Полное имя : H:\Torrent2\Doctor.Strange.2016D.TS.14OOMB.avi
Формат : AVI
Формат/Информация : Audio Video Interleave
Размер файла : 1,37 Гбайт
Продолжительность : 1 ч. 47 м.
Общий поток : 1823 Кбит/сек
Программа кодирования : VirtualDubMod 1.5.10.2 (build 2540/release)
Библиотека кодирования : VirtualDubMod build 2540/release
Видео
Идентификатор : 0
Формат : MPEG-4 Visual
Профиль формата : Advanced [email protected]
Параметр BVOP формата : 2
Параметр QPel формата : Нет
Параметр GMC формата : Без точки перехода
Параметр матрицы формата : Выборочная
Идентификатор кодека : XVID
Идентификатор кодека/Подсказка : XviD
Продолжительность : 1 ч. 47 м.
Битрейт : 1619 Кбит/сек
Ширина : 720 пикселей
Высота : 352 пикселя
Соотношение сторон : 2,045
Частота кадров : 29,970 (30000/1001) кадров/сек
Цветовое пространство : YUV
Субдискретизация насыщенности : 4:2:0
Битовая глубина : 8 бит
Тип развёртки : Прогрессивная
Метод сжатия : С потерями
Бит/(Пиксели*Кадры) : 0.213
Размер потока : 1,21 Гбайт (89%)
Библиотека кодирования : XviD 1.2.1 (UTC 2008-12-04)
Аудио
Идентификатор : 1
Формат : AC-3
Формат/Информация : Audio Coding 3
Расширение режима : CM (complete main)
Параметр Endianness формата : Big
Идентификатор кодека : 2000
Продолжительность : 1 ч. 47 м.
Вид битрейта : Постоянный
Битрейт : 192 Кбит/сек
Каналы : 2 канала
Расположение каналов : Front: L R
Частота : 48,0 КГц
Частота кадров : 31,250 кадров/сек (1536 spf)
Метод сжатия : С потерями
Размер потока : 147 Мбайт (11%)
Выравнивание : Разделение по промежуткам
Продолжительность промежутка : 33 мс. (1,00 видеокадр)
Время предзагрузки промежутка : 500 мс.
ТрейлерПРИСУТСТВУЕТ РЕКЛАМА!
Download / Скачать

Хотите скачать бесплатно? Зарегистрируйтесь на сайте (ссылка на регистрацию). Pirat.ca - самый быстрый торрент трекер в рунете!

Как скачивать  ·   Что такое торрент  ·   Рейтинг и ограничения

OLEG_PS2009

Флибустьер

Пост 03-Ноя-2016 16:36 (спустя 1 час 32 минуты)

[Q] 

Возьму для ознакомления.
[Профиль]  [ЛС] 

OLEG_PS2009

Флибустьер

Пост 04-Ноя-2016 16:58 (спустя 1 день)

[Q] 

Для выходного дня - пойдет, качество картинки соответствует скриншотам, вполне можно смотреть, звук не напрягает, реклама тоже)))
Автору респект!!! Пиратка рулит!
[Профиль]  [ЛС] 

swallow13

Штурман

Пост 05-Ноя-2016 18:55 (спустя 1 день 1 час)

[Q] 

Ну, качество то не TS, скорее Cam. И казино ... На любителя
[Профиль]  [ЛС] 

lightmaster

Флибустьер

Пост 06-Ноя-2016 17:13 (спустя 22 часа)

[Q] 

Надо взять... Раздающему респект!
[Профиль]  [ЛС] 

succube

Шкипер

Пост 06-Ноя-2016 18:05 (спустя 52 минуты)

[Q] 

Вполне смотрибельно Супер! Спасибо!!!
[Профиль]  [ЛС] 

VNXX

Корсар

Пост 07-Ноя-2016 00:43 (спустя 6 часов)

[Q] 

Судя по скринах - CamRip
[Профиль]  [ЛС] 

ketzer

Морской Волк

Пост 10-Ноя-2016 00:33 (спустя 2 дня 23 часа)

[Q] 

Отличный фильм. После двух последних фильмов о мстителях очень свежо смотрится.
[Профиль]  [ЛС] 

Aza73

Морской Волк

Пост 13-Ноя-2016 19:43 (спустя 3 дня)

[Q] 

спасибо раздающему Автору респект!!!
[Профиль]  [ЛС] 

Vadimok1984

Штурман

Пост 17-Ноя-2016 18:26 (спустя 3 дня)

[Q] 

посмотрим . спасибки
[Профиль]  [ЛС] 
Показать сообщения:    
Ответить на тему

Текущее время: Сегодня 20:21

Часовой пояс: GMT + 4



Вы не можете начинать темы
Вы не можете отвечать на сообщения
Вы не можете редактировать свои сообщения
Вы не можете удалять свои сообщения
Вы не можете голосовать в опросах
Вы не можете прикреплять файлы к сообщениям
Вы не можете скачивать файлы

▼ Вниз