ML
     
  Уважаемый Гость!
Вы можете поддержать проект и зарегистрироваться у наших партнеров - онлайн-стратегия MyLands. При регистрации в игре Вы получите код, который сможете активировать после регистрации на pirat.ca и получить 1000 дублонов.

Ваш код:
bb0cb47ee786a33f751af5a500dd264c9487bfac
 
     

Молот (Нурбек Эген) [2016 г., драма, спорт, CamRip]

Ответить на тему
 
Автор
Сообщение

Пост 04-Ноя-2016 09:18

[Q] 

Су-34

Гроза морей

-Молот- -Производство: Россия
Режиссер: Нурбек Эген
Жанр: драма, спорт
Год выпуска: 2016 г.
Продолжительность: 01:47:1
Перевод: не требуется (оригинал)
Субтитры: нет
Российская премьера: 3 ноября 2016, «Централ Партнершип»-В ролях: Алексей Чадов, Антон Шагин, Оксана Акиньшина, Сергей Чирков, Игорь Скляр, Евгений Евдокимов, Олег Посполитак, Александр Симкин-Описание: В шаге от чемпионского титула карьеру «Молота» перечеркивает страшная авария. Отныне любой поединок может стать для него последним. Но когда под угрозой оказывается его любовь, он доказывает, что «Молотом» его прозвали не только за сокрушительный удар. Настоящий боец на ринге и в жизни, он продолжает борьбу даже в центре паутины лжи и предательства. Рискуя всем, он идет напролом, чтобы спасти себя и свою возлюбленную...-Сэмпл КиноПоиск-Качество видео: CamRip
Контейнер: AVI
Видео кодек: XviD
Аудио кодек: AC3
Видео: 720x304 (2.35:1), 25.000 fps, XviD ~1 635 kbps avg
Аудио: 48.0 kHz, AC3 Dolby Digital, 2/0 (L,R) ch, ~192 kbps
Cубтитры: отсутствуют
D:\Torrents\MolOt.2O16.D.CAMRip.14OOMB.avi
General
Complete name : D:\Torrents\MolOt.2O16.D.CAMRip.14OOMB.avi
Format : AVI
Format/Info : Audio Video Interleave
File size : 1.38 GiB
Duration : 1h 47mn
Overall bit rate : 1 837 Kbps
Writing application : VirtualDubMod 1.5.10.2 (build 2540/release)
Writing library : VirtualDubMod build 2540/release
Video #0
ID : 0
Format : MPEG-4 Visual
Format profile : Advanced [email protected]
Format settings, BVOP : 2
Format settings, QPel : No
Format settings, GMC : No warppoints
Format settings, Matrix : Custom
Codec ID : XVID
Codec ID/Hint : XviD
Duration : 1h 47mn
Bit rate : 1 636 Kbps
Width : 720 pixels
Height : 304 pixels
Display aspect ratio : 2.35:1
Frame rate : 25.000 fps
Color space : YUV
Chroma subsampling : 4:2:0
Bit depth : 8 bits
Scan type : Progressive
Compression mode : Lossy
Bits/(Pixel*Frame) : 0.299
Stream size : 1.23 GiB (89%)
Writing library : XviD 1.2.1 (UTC 2008-12-04)
Audio #1
ID : 1
Format : AC-3
Format/Info : Audio Coding 3
Mode extension : CM (complete main)
Format settings, Endianness : Big
Codec ID : 2000
Duration : 1h 47mn
Bit rate mode : Constant
Bit rate : 192 Kbps
Channel count : 2 channels
Channel positions : Front: L R
Sampling rate : 48.0 KHz
Bit depth : 16 bits
Compression mode : Lossy
Stream size : 147 MiB (10%)
Alignment : Split accross interleaves
Interleave, duration : 40 ms (1.00 video frame)
Interleave, preload duration : 500 ms
Download / Скачать

Хотите скачать бесплатно? Зарегистрируйтесь на сайте (ссылка на регистрацию). Pirat.ca - самый быстрый торрент трекер в рунете!

Как скачивать  ·   Что такое торрент  ·   Рейтинг и ограничения



Последний раз редактировалось: Су-34 (2016-11-04 11:12), всего редактировалось 1 раз

smediks

Шкипер

Пост 04-Ноя-2016 21:33 (спустя 12 часов)

[Q] 

{мат} смотреть на скрины тошно просто!! не то что сам фильм)) у нас {мат} как в индийском кино, сцука одни и теже рожи во всех фильмах, только название меняется, фу {мат}
[Профиль]  [ЛС] 

alekzandr

Пост 05-Ноя-2016 08:56 (спустя 11 часов)

[Q] 

772072{мат} смотреть на скрины тошно просто!! не то что сам фильм)) у нас {мат} как в индийском кино, сцука одни и теже рожи во всех фильмах, только название меняется, фу {мат}
вообще то актеры отличные, в большем эквиваленте... сам фильм не видел, сказать за него не могу, но в таком качестве смысла нет смотреть... а smediks ваш комментарий вообще нео чем, ни сути по фильму, ни по качеству... вы бы лучше рот прикрыли...
[Профиль]  [ЛС] 

ksained_mate

Корсар

Пост 05-Ноя-2016 11:35 (спустя 2 часа 39 минут)

[Q] 

будем ждать хорошего качества!
[Профиль]  [ЛС] 

kentovito

Штурман

Пост 07-Ноя-2016 08:49 (спустя 1 день 21 час)

[Q] 

снято на simens , попытался смотреть, не получилось

_________________
Крутые видосы
[Профиль]  [ЛС] 

ketzer

Морской Волк

Пост 08-Ноя-2016 02:09 (спустя 17 часов)

[Q] 

Снято на моторолу в лифте.
[Профиль]  [ЛС] 

ГИППАРРД

Морской Волк

2

Пост 09-Ноя-2016 18:55 (спустя 1 день 16 часов)

[Q] 

Когда начнут лицензионную версию выкладывать, помниться в свое время делали так снимут фильм сидя в кинотеатре: придут к себе домой оцифруют и выкладывают в сеть и в форум как этот любой желающий скачивает открывает скачиный файл на своем кампустере и смотрит фильм любой где существует звук и видео, кроме того отличная видимость и звук если даже пиратский и лицензионный, успехов начинающим пиратам!!!!!
dc
[Профиль]  [ЛС] 

Skat.56

Гроза морей

448

Пост 09-Ноя-2016 22:47 (спустя 3 часа)

[Q] 

Тема избита до невозможности!
[Профиль]  [ЛС] 
Показать сообщения:    
Ответить на тему

Текущее время: Сегодня 02:21

Часовой пояс: GMT + 4



Вы не можете начинать темы
Вы не можете отвечать на сообщения
Вы не можете редактировать свои сообщения
Вы не можете удалять свои сообщения
Вы не можете голосовать в опросах
Вы не можете прикреплять файлы к сообщениям
Вы не можете скачивать файлы

▼ Вниз