ML
     
  Уважаемый Гость!
Вы можете поддержать проект и зарегистрироваться у наших партнеров - онлайн-стратегия MyLands. При регистрации в игре Вы получите код, который сможете активировать после регистрации на pirat.ca и получить 1000 дублонов.

Ваш код:
dbd0d701284cde74a1f34d06ce20b7bc75a73e75
 
     

Хеллоуин Мэдеи / Boo! A Madea Halloween (Тайлер Перри / Tyler Perry) [2016 г., ужасы, комедия, TS,] MVO[КОЛОБОК]

Ответить на тему
 
Автор
Сообщение

Пост 05-Ноя-2016 00:03

[Q] 

kroxaBOOM

Легенда

-Хеллоуин Мэдеи / Boo! A Madea Halloween-- Производство: США
Год выпуска: 2016 г.
Жанр: ужасы, комедия
Продолжительность: 01:42:26
Мировая премьера: 21 октября 2016
Перевод: Любительский (многоголосый, закадровый) [КОЛОБОК]
Режиссер: Тайлер Перри / Tyler Perry-В ролях: Тайлер Перри, Кассандра Дэвис, Патрис Ловели, Белла Торн, Yousef Erakat, Lexy Panterra, Андре Холл, Брок О’Херн, Лиза Коши, Даймонд Уайт-Описание: Беспокойный папаша переживает, чтобы его дочка-подросток не натворила дел на Хэллоуин. Она собирается отпраздновать его с друзьями и провести время на улетной вечеринке. Ее отец просит пожилую Мэдею последить за ней и обещает за это заплатить. Мэдея соглашается, но она и не предполагала, что ей придется столкнуться в эту ночь с призраками, киллерами, паранормальными явлениями, зомби и пугающими духами.-
Качество видео: TeleSynch
Контейнер: AVI
Видео кодек: XviD
Аудио кодек: AC3
Видео: 720x352 (4:2:0), 1 708 kb/s, 29.970 (30000/1001) FPS, 0.225 Bits/(Pixel*Frame)
Аудио: 192 kb/s, 2 channels, 48.0 kHz
Cубтитры: отсутствуют
General
Complete name : G:\Раздачи\Boo.A.Madea.Halloween.2016.P.TS.1400mb_KOSHARA.avi
Format : AVI
Format/Info : Audio Video Interleave
File size : 1.37 GiB
Duration : 1 h 42 min
Overall bit rate : 1 912 kb/s
Writing application : VirtualDubMod 1.5.10.2 (build 2540/release)
Writing library : VirtualDubMod build 2540/release
Video
ID : 0
Format : MPEG-4 Visual
Format profile : Advanced [email protected]
Format settings, BVOP : 2
Format settings, QPel : No
Format settings, GMC : No warppoints
Format settings, Matrix : Custom
Codec ID : XVID
Codec ID/Hint : XviD
Duration : 1 h 42 min
Bit rate : 1 708 kb/s
Width : 720 pixels
Height : 352 pixels
Display aspect ratio : 2.045
Frame rate : 29.970 (30000/1001) FPS
Color space : YUV
Chroma subsampling : 4:2:0
Bit depth : 8 bits
Scan type : Progressive
Compression mode : Lossy
Bits/(Pixel*Frame) : 0.225
Stream size : 1.22 GiB (89%)
Writing library : XviD 1.2.1 (UTC 2008-12-04)
Audio
ID : 1
Format : AC-3
Format/Info : Audio Coding 3
Mode extension : CM (complete main)
Format settings, Endianness : Big
Codec ID : 2000
Duration : 1 h 42 min
Bit rate mode : Constant
Bit rate : 192 kb/s
Channel(s) : 2 channels
Channel positions : Front: L R
Sampling rate : 48.0 kHz
Frame rate : 31.250 FPS (1536 spf)
Bit depth : 16 bits
Compression mode : Lossy
Stream size : 141 MiB (10%)
Alignment : Split accross interleaves
Interleave, duration : 33 ms (1.00 video frame)
Interleave, preload duration : 500 ms
Download / Скачать

Хотите скачать бесплатно? Зарегистрируйтесь на сайте (ссылка на регистрацию). Pirat.ca - самый быстрый торрент трекер в рунете!

Как скачивать  ·   Что такое торрент  ·   Рейтинг и ограничения

Показать сообщения:    
Ответить на тему

Текущее время: Сегодня 18:34

Часовой пояс: GMT + 4



Вы не можете начинать темы
Вы не можете отвечать на сообщения
Вы не можете редактировать свои сообщения
Вы не можете удалять свои сообщения
Вы не можете голосовать в опросах
Вы не можете прикреплять файлы к сообщениям
Вы не можете скачивать файлы

▼ Вниз