ML
     
  Уважаемый Гость!
Вы можете поддержать проект и зарегистрироваться у наших партнеров - онлайн-стратегия MyLands. При регистрации в игре Вы получите код, который сможете активировать после регистрации на pirat.ca и получить 1000 дублонов.

Ваш код:
ec3b26eefbcdc72e08e9fd33c6846bb2ca10f8b1
 
     

Саутсайд с тобой / Southside with You (Ричард Танн / Richard Tanne) [2016 г., драма, мелодрама, биография, CAMRip] MVO [КОЛОБОК] + Original (Eng)

Ответить на тему
 
Автор
Сообщение

Пост 08-Ноя-2016 19:35

[Q] 

kroxaBOOM

Легенда

Саутсайд с тобой / Southside with You
Страна: США
Производство: Get Lifted Film Company, IM Global, Rovio Entertainment
Год выпуска: 2016
Жанр: драма, мелодрама, биография
Продолжительность: 01:17:33
Дата премьеры (мир): 24 января 2016
Перевод: Любительский (многоголосый, закадровый) | [КОЛОБОК]
Оригинальный аудиопоток: английский-Режиссер: Ричард Танн / Richard Tanne
В ролях: Тика Самптер, Ванесса Белл Кэллоуэй, Паркер Сойерс, Филлип Э. Ван Леар, Дебора Геффнер, Алекс Зеленка, Престон Тейт мл., Джерод Хэйнс-Описание: Чикаго, 1989 год. Молодой студент, Барак Обама, знакомится с начинающим юристом Мишель Робинсон...- -Качество: CAMRip
Формат: АVI
Видео кодек: XviD
Аудио кодек: АС3
Видео: 720x320 (2.25:1), 29.970 fps, XviD ~1 737 kbps avg, 0.252 Bits/(Pixel*Frame)
Аудио №1: 48 kHz, AC3 Dolby Digital, 2/0 (L,R) ch, ~384 kbps | RUS
Аудио №2: 48 kHz, AC3 Dolby Digital, 2/0 (L,R) ch, ~384 kbps | ENG
Субтитры: нет
General
Format : AVI
Format/Info : Audio Video Interleave
File size : 1.37 GiB
Duration : 1 h 17 min
Overall bit rate : 2 523 kb/s
Writing application : VirtualDubMod 1.5.10.2 (build 2540/release)
Writing library : VirtualDubMod build 2540/release
Video
ID : 0
Format : MPEG-4 Visual
Format profile : Advanced [email protected]
Format settings, BVOP : 2
Format settings, QPel : No
Format settings, GMC : No warppoints
Format settings, Matrix : Custom
Codec ID : XVID
Codec ID/Hint : XviD
Duration : 1 h 17 min
Bit rate : 1 738 kb/s
Width : 720 pixels
Height : 320 pixels
Display aspect ratio : 2.25:1
Frame rate : 29.970 (30000/1001) FPS
Color space : YUV
Chroma subsampling : 4:2:0
Bit depth : 8 bits
Scan type : Progressive
Compression mode : Lossy
Bits/(Pixel*Frame) : 0.252
Stream size : 964 MiB (69%)
Writing library : XviD 1.2.1 (UTC 2008-12-04)
Audio #1
ID : 1
Format : AC-3
Format/Info : Audio Coding 3
Mode extension : CM (complete main)
Format settings, Endianness : Big
Codec ID : 2000
Duration : 1 h 17 min
Bit rate mode : Constant
Bit rate : 384 kb/s
Channel(s) : 2 channels
Channel positions : Front: L R
Sampling rate : 48.0 kHz
Frame rate : 31.250 FPS (1536 spf)
Bit depth : 16 bits
Compression mode : Lossy
Stream size : 213 MiB (15%)
Alignment : Split accross interleaves
Interleave, duration : 33 ms (1.00 video frame)
Interleave, preload duration : 500 ms
Audio #2
ID : 2
Format : AC-3
Format/Info : Audio Coding 3
Mode extension : CM (complete main)
Format settings, Endianness : Big
Codec ID : 2000
Duration : 1 h 17 min
Bit rate mode : Constant
Bit rate : 384 kb/s
Channel(s) : 2 channels
Channel positions : Front: L R
Sampling rate : 48.0 kHz
Frame rate : 31.250 FPS (1536 spf)
Bit depth : 16 bits
Compression mode : Lossy
Stream size : 213 MiB (15%)
Alignment : Split accross interleaves
Interleave, duration : 33 ms (1.00 video frame)
Interleave, preload duration : 500 ms
Download / Скачать

Хотите скачать бесплатно? Зарегистрируйтесь на сайте (ссылка на регистрацию). Pirat.ca - самый быстрый торрент трекер в рунете!

Как скачивать  ·   Что такое торрент  ·   Рейтинг и ограничения

kolipeq843

Морской Волк

Пост 09-Ноя-2016 08:17 (спустя 12 часов)

[Q] 

FUUUUUUUUUUUUUUUUUUUUUUUUUUUUUUUUUUUUUUUUUUUUUUUUUUUUUUUUUUUUUUUUUUUUUUU
[Профиль]  [ЛС] 

jahsmoke

Штурман

Пост 13-Ноя-2016 18:11 (спустя 4 дня)

[Q] 

А когда же про Володьку что-нибудь снимут? Ох да, жанр же получится - шоу дырявых

_________________
As your attorney, I advise you to drive at top speed, it'll be a god damn miracle if we can get there before you turn into a wild animal...
[Профиль]  [ЛС] 
Показать сообщения:    
Ответить на тему

Текущее время: Сегодня 03:52

Часовой пояс: GMT + 4



Вы не можете начинать темы
Вы не можете отвечать на сообщения
Вы не можете редактировать свои сообщения
Вы не можете удалять свои сообщения
Вы не можете голосовать в опросах
Вы не можете прикреплять файлы к сообщениям
Вы не можете скачивать файлы

▼ Вниз