ML
     
  Уважаемый Гость!
Вы можете поддержать проект и зарегистрироваться у наших партнеров - онлайн-стратегия MyLands. При регистрации в игре Вы получите код, который сможете активировать после регистрации на pirat.ca и получить 1000 дублонов.

Ваш код:
ec3b26eefbcdc72e08e9fd33c6846bb2ca10f8b1
 
     

Война против всех / War on Everyone (Джон Майкл МакДона / John Michael McDonagh) [2016 г., комедия, CAMRip]DUb

Ответить на тему
 
Автор
Сообщение

Пост 09-Ноя-2016 23:42

[Q] 

kroxaBOOM

Легенда

-Война против всех / War on Everyone-- Производство: Великобритания
Год выпуска: 2016 г.
Жанр: комедия
Продолжительность: 01:25:35
Мировая премьера: 12 февраля 2016 Германия Международный Берлинский кинофестиваль
Российская премьера: 3 ноября 2016,
Перевод: Профессиональный (полное дублирование)
Режиссер: Джон Майкл МакДона / John Michael McDonagh-В ролях: Александр Скарсгард, Тесса Томпсон, Тео Джеймс, Стефани Сигман, Малкольм Баррет, Майкл Пенья, Тейт Флетчер, Калеб Лэндри Джонс, Пол Райзер, Кит Джардин-Описание: Двое коррумпированных копов-отморозков из Нью-Мексико прессуют всех, кто попадается им под руку… или под колеса авто. Судьба подкидывает им шанс срубить целый миллион долларов, но на смачный куш также претендует эксцентричный английский лорд не без странных пристрастий. В борьбе за заслуженный улов напарники случайно узнают о стрёмных секретах красавчика-лорда и впрягаются нести возмездие. Плохим копам не терпится попробовать нечто совсем новое — борьбу за справедливость… ну, за то, как они понимают справедливость.-
Качество видео: CAMRip
Контейнер: AVI
Видео кодек: XviD
Аудио кодек: AC3
Видео: 720x304 (2.35:1), 1 698 kb/s, 29.970 (30000/1001) FPS, 0.259 Bits/(Pixel*Frame)
Аудио: 384 kb/s, 2 channels, 48.0 kHz
General
Complete name : G:\Раздачи2\Voyna.Protiv.Vsex.2O16.D.CAMRip.14OOMB_[pirat.ca].avi
Format : AVI
Format/Info : Audio Video Interleave
File size : 1.37 GiB
Duration : 1 h 33 min
Overall bit rate : 2 094 kb/s
Writing application : VirtualDubMod 1.5.10.2 (build 2540/release)
Writing library : VirtualDubMod build 2540/release
Video
ID : 0
Format : MPEG-4 Visual
Format profile : Advanced [email protected]
Format settings, BVOP : 2
Format settings, QPel : No
Format settings, GMC : No warppoints
Format settings, Matrix : Custom
Codec ID : XVID
Codec ID/Hint : XviD
Duration : 1 h 33 min
Bit rate : 1 698 kb/s
Width : 720 pixels
Height : 304 pixels
Display aspect ratio : 2.35:1
Frame rate : 29.970 (30000/1001) FPS
Color space : YUV
Chroma subsampling : 4:2:0
Bit depth : 8 bits
Scan type : Progressive
Compression mode : Lossy
Bits/(Pixel*Frame) : 0.259
Stream size : 1.11 GiB (81%)
Writing library : XviD 1.2.1 (UTC 2008-12-04)
Audio
ID : 1
Format : AC-3
Format/Info : Audio Coding 3
Mode extension : CM (complete main)
Format settings, Endianness : Big
Codec ID : 2000
Duration : 1 h 33 min
Bit rate mode : Constant
Bit rate : 384 kb/s
Channel(s) : 2 channels
Channel positions : Front: L R
Sampling rate : 48.0 kHz
Frame rate : 31.250 FPS (1536 spf)
Bit depth : 16 bits
Compression mode : Lossy
Stream size : 257 MiB (18%)
Alignment : Split accross interleaves
Interleave, duration : 33 ms (1.00 video frame)
Interleave, preload duration : 500 ms
Download / Скачать

Хотите скачать бесплатно? Зарегистрируйтесь на сайте (ссылка на регистрацию). Pirat.ca - самый быстрый торрент трекер в рунете!

Как скачивать  ·   Что такое торрент  ·   Рейтинг и ограничения

olipov

Легенда

Пост 10-Ноя-2016 11:19 (спустя 11 часов)

[Q] 

Лови бочку
[Профиль]  [ЛС] 

sergein

Корсар

Пост 11-Ноя-2016 00:24 (спустя 13 часов)

[Q] 

интересно интересно чего эт такое то??? cu
[Профиль]  [ЛС] 

bolin

Флибустьер

Пост 11-Ноя-2016 19:54 (спустя 19 часов)

[Q] 

О что-то новенькое! Автору респект!!!
[Профиль]  [ЛС] 

serded74

Морской Волк

Пост 12-Ноя-2016 15:09 (спустя 19 часов)

[Q] 

Смотреть можно! Спасибо!!!
[Профиль]  [ЛС] 

realyu

Корсар

Пост 15-Ноя-2016 12:38 (спустя 2 дня 21 час)

[Q] 

Мега банальный сюжет о 2х полуплохих (или полухороших) копах, которые с пошлыми шутками и циничными прибаутками ловят доктора зло. Трижды засыпал, не досмотрел 9 минут и даже на перемотке не стал досматривать - легион таких киношек проходных.
[Профиль]  [ЛС] 
Показать сообщения:    
Ответить на тему

Текущее время: Сегодня 03:45

Часовой пояс: GMT + 4



Вы не можете начинать темы
Вы не можете отвечать на сообщения
Вы не можете редактировать свои сообщения
Вы не можете удалять свои сообщения
Вы не можете голосовать в опросах
Вы не можете прикреплять файлы к сообщениям
Вы не можете скачивать файлы

▼ Вниз