ML
     
  Уважаемый Гость!
Вы можете поддержать проект и зарегистрироваться у наших партнеров - онлайн-стратегия MyLands. При регистрации в игре Вы получите код, который сможете активировать после регистрации на pirat.ca и получить 1000 дублонов.

Ваш код:
aec9a4a936117fb450ba69e519991a0465404b1d
 
     

Танцовщица / La danseuse ( Стефани Ди Джусто / Stéphanie Di Giusto) [2016 г., драма, биография, музыка, CAMRip,] Dub

Ответить на тему
 
Автор
Сообщение

Пост 11-Ноя-2016 23:40

[Q] 

kroxaBOOM

Легенда

-Танцовщица / La danseuse-- Производство: Франция, Бельгия, Чехия, Canal+ [fr], Casa Kafka Pictures, CNC, Czech Tax Rebate, Orange Studio, Sirena Film, RTBF, Wild Bunch
Год выпуска: 2016 г.
Жанр: драма, биография, музыка
Продолжительность: 01:45:36
Мировая премьера: 13 мая 2016
Российская премьера: 3 ноября 2016, «Russian World Vision»
Перевод: Профессиональный (полное дублирование)
Режиссер: Стефани Ди Джусто / Stéphanie Di Giusto-В ролях: Стефани Соколински, Гаспар Ульель, Мелани Тьерри, Лили-Роуз Мелоди Депп, Франсуа Дамиенс, Луи-До де Ланкесэ, Аманда Пламмер-Описание: Нью-Йорк, 1887 год молодая Мария-Луиза мечтает покорить Америку — стать великой актрисой. Во время выступления на сцене она путается в своём платье, но чудом избегает падения, продолжая кружиться в изящной ткани. Шокированные зрители становятся свидетелями исторического момента — так зародился модерн. Мария-Луиза стала Лои Фуллер — электрической феей, иконой, пылающим символом поколения. Новая муза братьев Люмьер и Тулуз-Лотрека теперь еще и звезда известного в Париже кабаре, а её танец бабочки покажут в Гранд Опера. Но слава — это не все. Случайная встреча Лои Фуллер с юной Айседорой Дункан ставит под угрозу ее непростую любовь с покровителем и саму суть изобретенного ею нового направления искусства...-
Качество видео: CAMRip
Контейнер: AVI
Видео кодек: XviD
Аудио кодек: AC3
Видео: 720x304 (4:2:0), 1 650 kb/s, 29.970 (30000/1001) FPS, 0.251 Bits/(Pixel*Frame)
Аудио: 192 kb/s, 2 channels, 48.0 kHz
General
Complete name : G:\Раздачи2\TancevaLka.2016.P.CAMRip.14OOMB.avi
Format : AVI
Format/Info : Audio Video Interleave
File size : 1.37 GiB
Duration : 1 h 45 min
Overall bit rate : 1 854 kb/s
Writing application : VirtualDubMod 1.5.10.2 (build 2540/release)
Writing library : VirtualDubMod build 2540/release
Video
ID : 0
Format : MPEG-4 Visual
Format profile : Advanced [email protected]
Format settings, BVOP : 2
Format settings, QPel : No
Format settings, GMC : No warppoints
Format settings, Matrix : Custom
Codec ID : XVID
Codec ID/Hint : XviD
Duration : 1 h 45 min
Bit rate : 1 650 kb/s
Width : 720 pixels
Height : 304 pixels
Display aspect ratio : 2.35:1
Frame rate : 29.970 (30000/1001) FPS
Color space : YUV
Chroma subsampling : 4:2:0
Bit depth : 8 bits
Scan type : Progressive
Compression mode : Lossy
Bits/(Pixel*Frame) : 0.251
Stream size : 1.22 GiB (89%)
Writing library : XviD 1.2.1 (UTC 2008-12-04)
Audio
ID : 1
Format : AC-3
Format/Info : Audio Coding 3
Mode extension : CM (complete main)
Format settings, Endianness : Big
Codec ID : 2000
Duration : 1 h 45 min
Bit rate mode : Constant
Bit rate : 192 kb/s
Channel(s) : 2 channels
Channel positions : Front: L R
Sampling rate : 48.0 kHz
Frame rate : 31.250 FPS (1536 spf)
Bit depth : 16 bits
Compression mode : Lossy
Stream size : 145 MiB (10%)
Alignment : Split accross interleaves
Interleave, duration : 33 ms (1.00 video frame)
Interleave, preload duration : 500 ms
Download / Скачать

Хотите скачать бесплатно? Зарегистрируйтесь на сайте (ссылка на регистрацию). Pirat.ca - самый быстрый торрент трекер в рунете!

Как скачивать  ·   Что такое торрент  ·   Рейтинг и ограничения

Показать сообщения:    
Ответить на тему

Текущее время: Сегодня 02:22

Часовой пояс: GMT + 4



Вы не можете начинать темы
Вы не можете отвечать на сообщения
Вы не можете редактировать свои сообщения
Вы не можете удалять свои сообщения
Вы не можете голосовать в опросах
Вы не можете прикреплять файлы к сообщениям
Вы не можете скачивать файлы

▼ Вниз