ML
     
  Уважаемый Гость!
Вы можете поддержать проект и зарегистрироваться у наших партнеров - онлайн-стратегия MyLands. При регистрации в игре Вы получите код, который сможете активировать после регистрации на pirat.ca и получить 1000 дублонов.

Ваш код:
dbd0d701284cde74a1f34d06ce20b7bc75a73e75
 
     

Большой собачий побег / Ozzy (Альберто Родригез / Alberto Rodriguez, Начо Ла Каза / Nacho La Casa) [2016 г., мультфильм, приключения, CAMRip,] Dub

Ответить на тему
 
Автор
Сообщение

Пост 12-Ноя-2016 00:14

[Q] 

kroxaBOOM

Легенда

-Большой собачий побег / Ozzy-- Производство: Канада, Испания, Arcadia Motion Pictures, Capitan Arana, Moonlight Cinema, Pasacana Films, Tangent Animation
Год выпуска: 2016 г.
Жанр: мультфильм, приключения
Продолжительность: 01:25:35
Мировая премьера: 14 октября 2016
Российская премьера: 3 ноября 2016, «Вольга»
Перевод: Профессиональный (полное дублирование)
Режиссер: Альберто Родригез / Alberto Rodriguez, Начо Ла Каза / Nacho La Casa-В ролях: Гильермо Ромеро, Дэни Ровира, Хосе Мота, Мишель Хеннер, Карлос Аресес, Фернандо Техеро, Эктор Кантолья, Хуан Фернандес-Описание: Жизнь беспечного бигля Оззи переворачивается с лап на голову, когда, отправляясь в отпуск, семья Мартинов отдает его в элитный спа-отель для собак. Но хозяева не могли и представить, что это всего лишь ловушка, а их любимец окажется в настоящей собачьей тюрьме. Чтобы прорваться через супер-систему охраны и злющих сторожевых псов, Оззи вместе с такими же бедолагами, как он, должен будет спланировать самый хитроумный и дерзкий побег в истории...-
Качество видео: CAMRip
Контейнер: AVI
Видео кодек: XviD
Аудио кодек: AC3
Видео: 720x352 (4:2:0), 1 891 kb/s, 29.970 (30000/1001) FPS, 0.249 Bits/(Pixel*Frame)
Аудио: 384 kb/s, 2 channels, 48.0 kHz
Cубтитры: отсутствуют
General
Complete name : G:\Раздачи2\Ozzy.2O16.D.TS.14OOMB.avi
Format : AVI
Format/Info : Audio Video Interleave
File size : 1.37 GiB
Duration : 1 h 25 min
Overall bit rate : 2 286 kb/s
Writing application : VirtualDubMod 1.5.10.2 (build 2540/release)
Writing library : VirtualDubMod build 2540/release
Video
ID : 0
Format : MPEG-4 Visual
Format profile : Advanced [email protected]
Format settings, BVOP : 2
Format settings, QPel : No
Format settings, GMC : No warppoints
Format settings, Matrix : Default (MPEG)
Codec ID : XVID
Codec ID/Hint : XviD
Duration : 1 h 25 min
Bit rate : 1 891 kb/s
Width : 720 pixels
Height : 352 pixels
Display aspect ratio : 2.045
Frame rate : 29.970 (30000/1001) FPS
Color space : YUV
Chroma subsampling : 4:2:0
Bit depth : 8 bits
Scan type : Progressive
Compression mode : Lossy
Bits/(Pixel*Frame) : 0.249
Stream size : 1.13 GiB (83%)
Writing library : XviD 1.2.1 (UTC 2008-12-04)
Audio
ID : 1
Format : AC-3
Format/Info : Audio Coding 3
Mode extension : CM (complete main)
Format settings, Endianness : Big
Codec ID : 2000
Duration : 1 h 25 min
Bit rate mode : Constant
Bit rate : 384 kb/s
Channel(s) : 2 channels
Channel positions : Front: L R
Sampling rate : 48.0 kHz
Frame rate : 31.250 FPS (1536 spf)
Bit depth : 16 bits
Compression mode : Lossy
Stream size : 235 MiB (17%)
Alignment : Split accross interleaves
Interleave, duration : 33 ms (1.00 video frame)
Interleave, preload duration : 500 ms
Download / Скачать

Хотите скачать бесплатно? Зарегистрируйтесь на сайте (ссылка на регистрацию). Pirat.ca - самый быстрый торрент трекер в рунете!

Как скачивать  ·   Что такое торрент  ·   Рейтинг и ограничения



Последний раз редактировалось: kroxaBOOM (2016-11-12 11:21), всего редактировалось 1 раз

kolipeq843

Морской Волк

Пост 12-Ноя-2016 15:43 (спустя 15 часов)

[Q] 

детский мультик про тюрьму, хехе
[Профиль]  [ЛС] 

bolin

Флибустьер

Пост 17-Ноя-2016 23:28 (спустя 5 дней)

[Q] 

Спасибо! Качну малышам!
[Профиль]  [ЛС] 

aleksey99

282187

Пост 03-Дек-2016 22:45 (спустя 15 дней)

[Q] 

Большой собачий побег / Ozzy (Альберто Родригез, Начо Ла Каза / Alberto Rodriguez, Nacho La Casa) [2016 г., мультфильм, WEB-DLRip] Dub [iTunes]

_________________

[Профиль]  [ЛС] 
Показать сообщения:    
Ответить на тему

Текущее время: Сегодня 18:31

Часовой пояс: GMT + 4



Вы не можете начинать темы
Вы не можете отвечать на сообщения
Вы не можете редактировать свои сообщения
Вы не можете удалять свои сообщения
Вы не можете голосовать в опросах
Вы не можете прикреплять файлы к сообщениям
Вы не можете скачивать файлы

▼ Вниз