ML
     
  Уважаемый Гость!
Вы можете поддержать проект и зарегистрироваться у наших партнеров - онлайн-стратегия MyLands. При регистрации в игре Вы получите код, который сможете активировать после регистрации на pirat.ca и получить 1000 дублонов.

Ваш код:
156f85568ae63e45e07ac461c96a83ba1a876b0a
 
     

Прибытие / Arrival (Дени Вильнёв / Denis Villeneuve) [2016 г., фантастика, триллер, драма, детектив, CAMRip] Dub

Ответить на тему
 
Автор
Сообщение

Пост 13-Ноя-2016 18:56

[Q] 

aleksey99

--Прибытие / Arrival--«Why are they here?»-- Производство: США, 21 Laps Entertainment, FilmNation Entertainment, Lava Bear Films
Год выпуска: 2016 г.
Жанр: фантастика, триллер, драма, детектив
Продолжительность: 01:49:16--Мировая премьера: 1 сентября 2016
Российская премьера: 11 ноября 2016, «WDSSPR»--Перевод: Профессиональный (полное дублирование)--Режиссер: Дени Вильнёв / Denis Villeneuve--В ролях: Эми Адамс, Джереми Реннер, Майкл Стулбарг, Форест Уитакер, Сангита Патель, Марк О’Брайэн, Эбигейл Пнёвски, Ци Ма, Натали Тибо, Рут Чианг--Описание: Неожиданное появление неопознанных летающих объектов в разных точках планеты повергает мир в трепет. Намерения пришельцев не ясны — вооруженные силы всего мира приведены в полную боевую готовность, а лучшие умы человечества пытаются понять, как разговаривать с непрошенными гостями. Правительство обращается за помощью к лингвисту Луизе Бэнкс и физику Яну Доннели, чтобы предотвратить глобальную катастрофу и найти общий язык с пришельцами. Отныне судьба человечества находится в их руках.-- --Качество видео: CAMRip
Контейнер: AVI
Видео кодек: XviD
Аудио кодек: AC3
Видео: 720x304 (2.37:1), 29.970 fps, XviD build 50 ~1575 kbps avg, 0.24 bit/pixel
Аудио: 48 kHz, AC3 Dolby Digital, 2/0 (L,R) ch, ~320 kbps
Cубтитры: отсутствуют.
Общее
Полное имя : H:\Torrent2\4rr1v4ls.2016.D.CAMRip.14OOMB.avi
Формат : AVI
Формат/Информация : Audio Video Interleave
Размер файла : 1,46 Гбайт
Продолжительность : 1 ч. 49 м.
Общий поток : 1907 Кбит/сек
Программа кодирования : VirtualDubMod 1.5.10.2 (build 2540/release)
Библиотека кодирования : VirtualDubMod build 2540/release
Видео
Идентификатор : 0
Формат : MPEG-4 Visual
Профиль формата : Advanced [email protected]
Параметр BVOP формата : 2
Параметр QPel формата : Нет
Параметр GMC формата : Без точки перехода
Параметр матрицы формата : Выборочная
Идентификатор кодека : XVID
Идентификатор кодека/Подсказка : XviD
Продолжительность : 1 ч. 49 м.
Битрейт : 1575 Кбит/сек
Ширина : 720 пикселей
Высота : 304 пикселя
Соотношение сторон : 2,35:1
Частота кадров : 29,970 (30000/1001) кадров/сек
Цветовое пространство : YUV
Субдискретизация насыщенности : 4:2:0
Битовая глубина : 8 бит
Тип развёртки : Прогрессивная
Метод сжатия : С потерями
Бит/(Пиксели*Кадры) : 0.240
Размер потока : 1,20 Гбайт (83%)
Библиотека кодирования : XviD 1.2.1 (UTC 2008-12-04)
Аудио
Идентификатор : 1
Формат : AC-3
Формат/Информация : Audio Coding 3
Расширение режима : CM (complete main)
Параметр Endianness формата : Big
Идентификатор кодека : 2000
Продолжительность : 1 ч. 49 м.
Вид битрейта : Постоянный
Битрейт : 320 Кбит/сек
Каналы : 2 канала
Расположение каналов : Front: L R
Частота : 48,0 КГц
Частота кадров : 31,250 кадров/сек (1536 spf)
Метод сжатия : С потерями
Размер потока : 250 Мбайт (17%)
Выравнивание : Разделение по промежуткам
Продолжительность промежутка : 33 мс. (1,00 видеокадр)
Время предзагрузки промежутка : 500 мс.
ТрейлерПРИСУТСТВУЕТ РЕКЛАМА!
Download / Скачать

Хотите скачать бесплатно? Зарегистрируйтесь на сайте (ссылка на регистрацию). Pirat.ca - самый быстрый торрент трекер в рунете!

Как скачивать  ·   Что такое торрент  ·   Рейтинг и ограничения

asuslx

Шкипер

Пост 13-Ноя-2016 22:58 (спустя 4 часа)

[Q] 

коекак посмотрел.
изображение конечно... ну когда темно не видно ничего практически, но хоть без голов и не дергается.
по фильму - интересный, но признаться ожидал большего, ждал чистую научную фантастику, но вторая половина соплями и штампами, про любовь и мораль наполнена, видимо на потребителя чтобы, или я такой черствый. 7.6/10
спасибо за раздачу.
[Профиль]  [ЛС] 

Apostle358

Корсар

150

Пост 14-Ноя-2016 08:54 (спустя 9 часов)

[Q] 

773615кое-как посмотрел....
Благодарю за комментарий, качать не буду. Тоже думал что это научно-фантастический фильм будет. Очень жаль.
[Профиль]  [ЛС] 

vata45

Морской Волк

13

Пост 14-Ноя-2016 16:57 (спустя 8 часов)

[Q] 

Отлично. Забираю. Попробую посмотреть- самый ожидаемый фантастический фильм года!!!
Добавлено спустя 2 часа 23 минуты 53 секунды:
Странный фильм.
Правду пишут что это не экшн. Он больше филосовско-политический.
О самом рипе скажу. Все прекрасно только посветлее бы картинку .Картиинка перевернута как если бы снимали с другой стороны экрана.
Звук тоже норм. в некоторых местах отсутствует перевод но не критично.
Сам фильм...6 из 10 .

_________________
Лучше ужасный конец, чем бесконечный ужас...
[Профиль]  [ЛС] 

Skat.56

Гроза морей

448

Пост 16-Ноя-2016 01:33 (спустя 1 день 8 часов)

[Q] 

Короче ток тапками не бейте!
Нет тут, политики соплей и екшена.
Качество для рипа- хорошее, и по звуку и по картинке.
Мешает реклама казино и брачные призывы для рекламодателей.
Ну конечно же страна производящая фильм свою нацию во главе ставит... Ну те же корейцы любят снимать о своих героях( корейских). Все странны обозначены нейтрально. Что кстати удивительно для настоящего мира и информационно культурной системы.
О героях. (Что то мне подсказывает что скоро президент той самой будет женщина) Как когда то самым крутым становился негр или мексиканец... теперь это женщина, да и фильм завязан на материнском инстинкте. Споилерну но фильм о многомерности данных...
О сюжете, думаю что тем кто слышал о кварках, теории струн и множественности вселенной данный фильм понравится. Остальные его посмотрят как неплохую катастрофу под пивасик.
Однозначно качать!
[Профиль]  [ЛС] 

viji

Корсар

Пост 16-Ноя-2016 19:10 (спустя 17 часов)

[Q] 

Идея проблемы общения с инопланетянами обыграна интересно. Концовка не очень порадовала. Какой смысл передачи дара лицезрения будущего и прошлого каждого живого? Вот тут какой-то косяк. Но в целом неплохо.
[Профиль]  [ЛС] 

bolin

Флибустьер

Пост 17-Ноя-2016 11:48 (спустя 16 часов)

[Q] 

Спасибо за раздачу!
[Профиль]  [ЛС] 

kostyawerty

Штурман

Пост 18-Ноя-2016 18:19 (спустя 1 день 6 часов)

[Q] 

поддержу раздачу
[Профиль]  [ЛС] 

rsel

Морской Волк

Пост 26-Ноя-2016 20:43 (спустя 8 дней)

[Q] 

когда уже выложат в качестве получше....
[Профиль]  [ЛС] 

VDGS

Корсар

Пост 26-Ноя-2016 20:47 (спустя 4 минуты)

[Q] 

не мое, на мой взгляд нудно. Автору респект
[Профиль]  [ЛС] 

viktoti9

Шкипер

5

Пост 27-Ноя-2016 16:54 (спустя 20 часов)

[Q] 

Не знаете, как в прокат выйдет, что бы можно было в нормальном качестве глянуть?
[Профиль]  [ЛС] 
Показать сообщения:    
Ответить на тему

Текущее время: Сегодня 22:00

Часовой пояс: GMT + 4



Вы не можете начинать темы
Вы не можете отвечать на сообщения
Вы не можете редактировать свои сообщения
Вы не можете удалять свои сообщения
Вы не можете голосовать в опросах
Вы не можете прикреплять файлы к сообщениям
Вы не можете скачивать файлы

▼ Вниз