ML
     
  Уважаемый Гость!
Вы можете поддержать проект и зарегистрироваться у наших партнеров - онлайн-стратегия MyLands. При регистрации в игре Вы получите код, который сможете активировать после регистрации на pirat.ca и получить 1000 дублонов.

Ваш код:
dbd0d701284cde74a1f34d06ce20b7bc75a73e75
 
     

Хороший мальчик (Оксана Карас) [2016 г., комедия, CAMRip] Original (RUS)

Ответить на тему
 
Автор
Сообщение

Пост 15-Ноя-2016 08:33

[Q] 

aleksey99

--Хороший мальчик--«Вырастешь - поймешь!»-- Производство: Россия, 2D Целлулоид, Art Pictures Studio
Год выпуска: 2016 г.
Жанр: комедия
Продолжительность: 01:22:45--Мировая премьера: 3 ноября 2016
Российская премьера: 10 ноября 2016, «WDSSPR»--Режиссер: Оксана Карас--В ролях: Семён Трескунов, Константин Хабенский, Михаил Ефремов, Александр Паль, Анастасия Богатырева, Василий Буткевич, Иева Андреевайте, Ирина Денисова, Татьяна Догилева, Ирина Пегова--Описание: Обычная, казалось бы, неделя из жизни ничем не примечательного школьника Коли Смирнова превращается в череду невероятных происшествий: Коля влюбляется в учительницу английского, кто-то поджигает школьную пристройку с новыми компьютерами, а папа Коли заявляет семье о необходимости отказа от ночного сна, из-за чего никому в доме не удается выспаться и собраться с мыслями. Вдобавок в самого Колю влюбляется дочка директора, старшеклассница Ксюша, решившая, что это именно он поджёг школу. Остаётся всего несколько дней до субботнего праздника школы, где должны встретиться все действующие лица этого водоворота событий, и теперь хорошему мальчику Коле необходимо успеть разобраться со своей личной жизнью, расследовать поджог и наладить взаимоотношения с родителями.-- --Качество видео: CAMRip
Контейнер: AVI
Видео кодек: XviD
Аудио кодек: AC3
Видео: 720x304 (2.37:1), 29.970 fps, XviD build 50 ~1968 kbps avg, 0.30 bit/pixel
Аудио: 48 kHz, AC3 Dolby Digital, 2/0 (L,R) ch, ~384 kbps
Cубтитры: отсутствуют
Общее
Полное имя : H:\Torrent2\XoriSHiy.PatsanCHilk.2O16.O.CAMRip.14OOMB.avi
Формат : AVI
Формат/Информация : Audio Video Interleave
Размер файла : 1,37 Гбайт
Продолжительность : 1 ч. 22 м.
Общий поток : 2365 Кбит/сек
Программа кодирования : VirtualDubMod 1.5.10.2 (build 2540/release)
Библиотека кодирования : VirtualDubMod build 2540/release
Видео
Идентификатор : 0
Формат : MPEG-4 Visual
Профиль формата : Advanced [email protected]
Параметр BVOP формата : 2
Параметр QPel формата : Нет
Параметр GMC формата : Без точки перехода
Параметр матрицы формата : Выборочная
Идентификатор кодека : XVID
Идентификатор кодека/Подсказка : XviD
Продолжительность : 1 ч. 22 м.
Битрейт : 1969 Кбит/сек
Ширина : 720 пикселей
Высота : 304 пикселя
Соотношение сторон : 2,35:1
Частота кадров : 29,970 (30000/1001) кадров/сек
Цветовое пространство : YUV
Субдискретизация насыщенности : 4:2:0
Битовая глубина : 8 бит
Тип развёртки : Прогрессивная
Метод сжатия : С потерями
Бит/(Пиксели*Кадры) : 0.300
Размер потока : 1,14 Гбайт (83%)
Библиотека кодирования : XviD 1.2.1 (UTC 2008-12-04)
Аудио
Идентификатор : 1
Формат : AC-3
Формат/Информация : Audio Coding 3
Расширение режима : CM (complete main)
Параметр Endianness формата : Big
Идентификатор кодека : 2000
Продолжительность : 1 ч. 22 м.
Вид битрейта : Постоянный
Битрейт : 384 Кбит/сек
Каналы : 2 канала
Расположение каналов : Front: L R
Частота : 48,0 КГц
Частота кадров : 31,250 кадров/сек (1536 spf)
Метод сжатия : С потерями
Размер потока : 227 Мбайт (16%)
Выравнивание : Разделение по промежуткам
Продолжительность промежутка : 33 мс. (1,00 видеокадр)
Время предзагрузки промежутка : 500 мс.
Трейлер
Download / Скачать

Хотите скачать бесплатно? Зарегистрируйтесь на сайте (ссылка на регистрацию). Pirat.ca - самый быстрый торрент трекер в рунете!

Как скачивать  ·   Что такое торрент  ·   Рейтинг и ограничения

viji

Корсар

Пост 16-Ноя-2016 16:59 (спустя 1 день 8 часов)

[Q] 

Отличное кино. Приятное для просмотра. Хорошо играют, атмосферный фильм.
[Профиль]  [ЛС] 

kostyawerty

Штурман

Пост 18-Ноя-2016 18:21 (спустя 2 дня 1 час)

[Q] 

Российский кинематограф продолжает радовать. нравится сия тенденция. Единственное,хотелось что бы запретили снимать фильмы всяким -сянам у которых КВНщики в главных ролях
[Профиль]  [ЛС] 

realyu

Корсар

Пост 22-Ноя-2016 03:25 (спустя 3 дня)

[Q] 

С трудом до половины продержался, потом выключил и удалил. Какая-то дребедень о школьниках. Но школьникам, наверное, будет весело и интересно.
И да, фильм "Распилено Сделано при поддержке Минкультуры" - так что глупо было надеяться на что-то.
[Профиль]  [ЛС] 

asuslx

Шкипер

Пост 25-Ноя-2016 14:43 (спустя 3 дня)

[Q] 

не знаю много ли там нехватает, но фильм не до конца.
[Профиль]  [ЛС] 

колотов

Шкипер

Пост 26-Ноя-2016 16:19 (спустя 1 день 1 час)

[Q] 

Не с начала и не до конца. Качество отвратительное, особенно звук.
[Профиль]  [ЛС] 
Показать сообщения:    
Ответить на тему

Текущее время: Сегодня 18:35

Часовой пояс: GMT + 4



Вы не можете начинать темы
Вы не можете отвечать на сообщения
Вы не можете редактировать свои сообщения
Вы не можете удалять свои сообщения
Вы не можете голосовать в опросах
Вы не можете прикреплять файлы к сообщениям
Вы не можете скачивать файлы

▼ Вниз