ML
     
  Уважаемый Гость!
Вы можете поддержать проект и зарегистрироваться у наших партнеров - онлайн-стратегия MyLands. При регистрации в игре Вы получите код, который сможете активировать после регистрации на pirat.ca и получить 1000 дублонов.

Ваш код:
062e2babcc491faeb40d496cf9a498ac3df6cdd0
 
     

Любовь без правил (Дмитрий Астрахан) [2016 г., комедия, CAMRip,]

Ответить на тему
 
Автор
Сообщение

Пост 17-Ноя-2016 11:55

[Q] 

kroxaBOOM

Легенда

-Любовь без правил-- Производство: Россия
Год выпуска: 2016 г.
Жанр: комедия
Продолжительность: 01:31:16
Российская премьера:10 ноября 2016, «Каропрокат»
Режиссер: Дмитрий Астрахан-В ролях: Виктор Васильев, Анна Горшкова, Олег Васильков, Ирина Погодина, Анна Назарова, Иван Щетко, Софья Синицына, Наталья Барановская, Людмила Баталова, Георгий Малявский-Описание: В городе Зареченске жены часто отказывали мужьям. Когда же проблема накрыла и мэра города, Сергей Николаевич не стал терпеть и начал действовать. С родственником жены, местным олигархом, они решают перепрофилировать построенный на противоположном берегу реки санаторий в «Оздоровительный центр». Для чего бизнесмен приглашает из столицы специально обученный «медицинский персонал». И вот уже на другую сторону реки пришвартовывается катер с симпатичными, молодыми и очень профессиональными «медсестрами» и «санитарками». Вооружившись биноклями зареченские жены придирчиво рассматривают конкуренток. А что-же мужья? Надев парадные костюмы и галстуки они садятся в лодки и через несколько минут оказываются на другом берегу, среди молодых, красивых, покладистых и совсем не стервозных девушек. Другие правила или наоборот, любовь без правил?-
Качество видео: CAMRip
Контейнер: AVI
Видео кодек: XviD
Аудио кодек: AC3
Видео: 720x320 (2.25:1), 1 749 kb/s, 29.970 (30000/1001) FPS, 0.253 Bits/(Pixel*Frame)
Аудио: 384 kb/s, 2 channels, 48.0 kHz
Cубтитры: отсутствуют
General
Complete name : G:\Раздачи2\Love.Bez.PraviLL.2O!6.O.CAMRip.14OOMB_KOSHARA.avi
Format : AVI
Format/Info : Audio Video Interleave
File size : 1.37 GiB
Duration : 1 h 31 min
Overall bit rate : 2 144 kb/s
Writing application : VirtualDubMod 1.5.10.2 (build 2540/release)
Writing library : VirtualDubMod build 2540/release
Video
ID : 0
Format : MPEG-4 Visual
Format profile : Advanced [email protected]
Format settings, BVOP : 2
Format settings, QPel : No
Format settings, GMC : No warppoints
Format settings, Matrix : Custom
Codec ID : XVID
Codec ID/Hint : XviD
Duration : 1 h 31 min
Bit rate : 1 749 kb/s
Width : 720 pixels
Height : 320 pixels
Display aspect ratio : 2.25:1
Frame rate : 29.970 (30000/1001) FPS
Color space : YUV
Chroma subsampling : 4:2:0
Bit depth : 8 bits
Scan type : Progressive
Compression mode : Lossy
Bits/(Pixel*Frame) : 0.253
Stream size : 1.11 GiB (82%)
Writing library : XviD 1.2.1 (UTC 2008-12-04)
Audio
ID : 1
Format : AC-3
Format/Info : Audio Coding 3
Mode extension : CM (complete main)
Format settings, Endianness : Big
Codec ID : 2000
Duration : 1 h 31 min
Bit rate mode : Constant
Bit rate : 384 kb/s
Channel(s) : 2 channels
Channel positions : Front: L R
Sampling rate : 48.0 kHz
Frame rate : 31.250 FPS (1536 spf)
Bit depth : 16 bits
Compression mode : Lossy
Stream size : 251 MiB (18%)
Alignment : Split accross interleaves
Interleave, duration : 33 ms (1.00 video frame)
Interleave, preload duration : 500 ms
Download / Скачать

Хотите скачать бесплатно? Зарегистрируйтесь на сайте (ссылка на регистрацию). Pirat.ca - самый быстрый торрент трекер в рунете!

Как скачивать  ·   Что такое торрент  ·   Рейтинг и ограничения

ТАЛИ

Корсар

Пост 17-Ноя-2016 20:31 (спустя 8 часов)

[Q] 

Это нужно в камрипки. Качество отвратительное.
[Профиль]  [ЛС] 

redfield

Шкипер

Пост 18-Ноя-2016 20:07 (спустя 23 часа)

[Q] 

Не думал что наше кино можно в камрипе найти.
[Профиль]  [ЛС] 
Показать сообщения:    
Ответить на тему

Текущее время: Сегодня 17:39

Часовой пояс: GMT + 4



Вы не можете начинать темы
Вы не можете отвечать на сообщения
Вы не можете редактировать свои сообщения
Вы не можете удалять свои сообщения
Вы не можете голосовать в опросах
Вы не можете прикреплять файлы к сообщениям
Вы не можете скачивать файлы

▼ Вниз