ML
     
  Уважаемый Гость!
Вы можете поддержать проект и зарегистрироваться у наших партнеров - онлайн-стратегия MyLands. При регистрации в игре Вы получите код, который сможете активировать после регистрации на pirat.ca и получить 1000 дублонов.

Ваш код:
8b29d0f8cd61fe457e59e7df0aa1fab41a2b88b9
 
     

По соображениям совести / Hacksaw Ridge (Мэл Гибсон / Mel Gibson) [2016 г., драма, военный, история, CAMRip] Dub

Ответить на тему
 
Автор
Сообщение

Пост 18-Ноя-2016 08:57

[Q] 

aleksey99

--По соображениям совести / Hacksaw Ridge--«Based on the incredible true story»-- Производство: Австралия, США, Cross Creek Pictures, Demarest Media, IM Global
Год выпуска: 2016 г.
Жанр: драма, военный, история
Продолжительность: 02:02:34--Мировая премьера: 4 сентября 2016
Российская премьера: 17 ноября 2016, «WDSSPR»--Перевод: Профессиональный (полное дублирование)--Режиссер: Мэл Гибсон / Mel Gibson--В ролях: Эндрю Гарфилд, Ричард Пирос, Джейкоб Уорнер, Мило Гибсон, Дарси Брайс, Роман Геррьеро, Джеймс Лагтон, Касия Стелмах, Хьюго Уивинг, Рэйчел Гриффитс--Описание: Медик Американской армии времён Второй Мировой войны Дезмонд Досс, который служил во время битвы за Окинаву, отказывается убивать людей и становится первым идейным уклонистом в американской истории, удостоенным Медали Почёта.-- --Качество видео: CAMRip
Контейнер: AVI
Видео кодек: XviD
Аудио кодек: AC3
Видео: 720x304 (2.37:1), 25 fps, XviD build 50 ~1563 kbps avg, 0.28 bit/pixel
Аудио: 48 kHz, AC3 Dolby Digital, 2/0 (L,R) ch, ~128 kbps
Cубтитры: отсутствуют.
Общее
Полное имя : H:\Torrent2\Po.SoobtaJeniam.Sivesti.2O16.D.CAMRip.14OOMB.avi
Формат : AVI
Формат/Информация : Audio Video Interleave
Размер файла : 1,46 Гбайт
Продолжительность : 2 ч. 2 м.
Общий поток : 1702 Кбит/сек
Программа кодирования : VirtualDubMod 1.5.10.2 (build 2540/release)
Библиотека кодирования : VirtualDubMod build 2540/release
Видео
Идентификатор : 0
Формат : MPEG-4 Visual
Профиль формата : Advanced [email protected]
Параметр BVOP формата : 2
Параметр QPel формата : Нет
Параметр GMC формата : Без точки перехода
Параметр матрицы формата : Выборочная
Идентификатор кодека : XVID
Идентификатор кодека/Подсказка : XviD
Продолжительность : 2 ч. 2 м.
Битрейт : 1564 Кбит/сек
Ширина : 720 пикселей
Высота : 304 пикселя
Соотношение сторон : 2,35:1
Частота кадров : 25,000 кадров/сек
Цветовое пространство : YUV
Субдискретизация насыщенности : 4:2:0
Битовая глубина : 8 бит
Тип развёртки : Прогрессивная
Метод сжатия : С потерями
Бит/(Пиксели*Кадры) : 0.286
Размер потока : 1,34 Гбайт (92%)
Библиотека кодирования : XviD 1.2.1 (UTC 2008-12-04)
Аудио
Идентификатор : 1
Формат : AC-3
Формат/Информация : Audio Coding 3
Расширение режима : CM (complete main)
Параметр Endianness формата : Big
Идентификатор кодека : 2000
Продолжительность : 2 ч. 2 м.
Вид битрейта : Постоянный
Битрейт : 128 Кбит/сек
Каналы : 2 канала
Расположение каналов : Front: L R
Частота : 48,0 КГц
Частота кадров : 31,250 кадров/сек (1536 spf)
Метод сжатия : С потерями
Размер потока : 112 Мбайт (8%)
Выравнивание : Разделение по промежуткам
Продолжительность промежутка : 40 мс. (1,00 видеокадр)
Время предзагрузки промежутка : 500 мс.
ТрейлерПРИСУТСТВУЕТ РЕКЛАМА!
Download / Скачать

Хотите скачать бесплатно? Зарегистрируйтесь на сайте (ссылка на регистрацию). Pirat.ca - самый быстрый торрент трекер в рунете!

Как скачивать  ·   Что такое торрент  ·   Рейтинг и ограничения

realyu

Корсар

Пост 21-Ноя-2016 02:44 (спустя 2 дня 17 часов)

[Q] 

Люди! Не качайте! Ждите хорошего качества - кино того стоит! Ещё и интервью, после титров, с реальными прототипами киношных героев без перевода.
Фильм станет новым эталоном военной драмы. По меньшей мере по батальным сценам - всё жутко правдоподобно, с горой "мяса" и без всякого пафоса. Как драма - тоже не подкачал, думаю даже атеистам понравится, ГГ и вправду заслуживает уважения за несгибаемость.
Высший балл.
Ждите качества!
[Профиль]  [ЛС] 

viji

Корсар

Пост 21-Ноя-2016 10:25 (спустя 7 часов)

[Q] 

Фильм очень слабенький, наигранный, ни о чем. Даже не стоило снимать такую историю. Само качество кам-рипки нормальное.
[Профиль]  [ЛС] 

realyu

Корсар

Пост 21-Ноя-2016 18:56 (спустя 8 часов)

[Q] 

viji, каждый имеет право на собственное мнение и любой фильм априори не может нравиться всем людям на земле, но в данном случае ты будешь в микроскопическом меньшинстве - посмотри на статистику голосования на Imdb и КП. Про Список Шиндлера, Зеленая миля, Жизнь прекрасна, Побег из Шоушенка и пр. тоже есть отрицательные отзывы, но кто на них обращает внимание? (про избитое "Миллионы мух не могут ошибаться" не надо, пожалуйста)
Качество рипа - смотреть можно, но не нужно: удовольствие от просмотра будет неполным. Тем более ближе к финалу камера в зале заваливается на бок и до конца фильма получаем вот такую заваленную и обрезанную картинку:
[Профиль]  [ЛС] 
Показать сообщения:    
Ответить на тему

Текущее время: Сегодня 21:24

Часовой пояс: GMT + 4



Вы не можете начинать темы
Вы не можете отвечать на сообщения
Вы не можете редактировать свои сообщения
Вы не можете удалять свои сообщения
Вы не можете голосовать в опросах
Вы не можете прикреплять файлы к сообщениям
Вы не можете скачивать файлы

▼ Вниз