ML
     
  Уважаемый Гость!
Вы можете поддержать проект и зарегистрироваться у наших партнеров - онлайн-стратегия MyLands. При регистрации в игре Вы получите код, который сможете активировать после регистрации на pirat.ca и получить 1000 дублонов.

Ваш код:
2fd4e750dd89cae3a36ea360f2b345ccfeb562d3
 
     

Фантастические твари и где они обитают / Fantastic Beasts and Where to Find Them (Дэвид Йейтс / David Yates) [2016 г., фэнтези, приключения, семейный, CAMRip] Dub

Ответить на тему
 
Автор
Сообщение

Пост 20-Ноя-2016 08:47

[Q] 

aleksey99

--Фантастические твари и где они обитают / Fantastic Beasts and Where to Find Them--«Открой новую главу волшебного мира Дж.К.Роулинг»-- Производство: Великобритания, США, Cinesite, Double Negative, Framestore
Год выпуска: 2016 г.
Жанр: фэнтези, приключения, семейный
Продолжительность: 02:03:44--Мировая премьера: 16 ноября 2016
Российская премьера: 17 ноября 2016, «Каро-Премьер»--Перевод: Профессиональный (полное дублирование)--Режиссер: Дэвид Йейтс / David Yates--В ролях: Эдди Редмэйн, Кэтрин Уотерстон, Дэн Фоглер, Элисон Судол, Колин Фаррелл, Кармен Эджого, Эзра Миллер, Саманта Мортон, Рон Перлман, Джон Войт--Описание: 1926 год. Зоолог-волшебник Ньют Саламандер нелегально вывозит в чемодане редких магических зверей, чтобы переселить оставшихся особей в более подходящую среду обитания и, тем самым, сохранить их как вид. Но при очередном прохождении нью-йоркской таможни что-то идет не так и несколько опасных существ оказываются на воле. Саламандеру необходимо как можно быстрее упаковать разбежавшийся зверинец обратно в чемодан, ведь на его поиски уже выдвинулись местные волшебные власти. Дело осложняется назревающим конфликтом между магами и не-магами (американское название маглов), за которым стоит тайное общество анархистов-радикалов "Новый Салем". Его адепты вынашивают жуткий план по честному отъему волшебных палочек во всем мире.-- --Качество видео: CAMRip
Контейнер: AVI
Видео кодек: XviD
Аудио кодек: AC3
Видео: 720x304 (2.37:1), 29.970 fps, XviD build 50 ~1984 kbps avg, 0.30 bit/pixel
Аудио: 48 kHz, AC3 Dolby Digital, 2/0 (L,R) ch, ~384 kbps
Cубтитры: отсутствуют.
Общее
Полное имя : H:\Torrent2\Pveri.iz.FantastiKi.2O!6.D.CAMRip.21OOMB.avi
Формат : AVI
Формат/Информация : Audio Video Interleave
Профиль формата : OpenDML
Размер файла : 2,06 Гбайт
Продолжительность : 2 ч. 3 м.
Общий поток : 2383 Кбит/сек
Программа кодирования : VirtualDubMod 1.5.10.2 (build 2540/release)
Библиотека кодирования : VirtualDubMod build 2540/release
Видео
Идентификатор : 0
Формат : MPEG-4 Visual
Профиль формата : Advanced [email protected]
Параметр BVOP формата : 2
Параметр QPel формата : Нет
Параметр GMC формата : Без точки перехода
Параметр матрицы формата : Выборочная
Идентификатор кодека : XVID
Идентификатор кодека/Подсказка : XviD
Продолжительность : 2 ч. 3 м.
Битрейт : 1984 Кбит/сек
Ширина : 720 пикселей
Высота : 304 пикселя
Соотношение сторон : 2,35:1
Частота кадров : 29,970 (30000/1001) кадров/сек
Цветовое пространство : YUV
Субдискретизация насыщенности : 4:2:0
Битовая глубина : 8 бит
Тип развёртки : Прогрессивная
Метод сжатия : С потерями
Бит/(Пиксели*Кадры) : 0.302
Размер потока : 1,71 Гбайт (83%)
Библиотека кодирования : XviD 1.2.1 (UTC 2008-12-04)
Аудио
Идентификатор : 1
Формат : AC-3
Формат/Информация : Audio Coding 3
Расширение режима : CM (complete main)
Параметр Endianness формата : Big
Идентификатор кодека : 2000
Продолжительность : 2 ч. 3 м.
Вид битрейта : Постоянный
Битрейт : 384 Кбит/сек
Каналы : 2 канала
Расположение каналов : Front: L R
Частота : 48,0 КГц
Частота кадров : 31,250 кадров/сек (1536 spf)
Метод сжатия : С потерями
Размер потока : 340 Мбайт (16%)
Выравнивание : Разделение по промежуткам
Продолжительность промежутка : 33 мс. (1,00 видеокадр)
Время предзагрузки промежутка : 500 мс.
Трейлер
Download / Скачать

Хотите скачать бесплатно? Зарегистрируйтесь на сайте (ссылка на регистрацию). Pirat.ca - самый быстрый торрент трекер в рунете!

Как скачивать  ·   Что такое торрент  ·   Рейтинг и ограничения



Последний раз редактировалось: aleksey99 (2016-11-20 15:48), всего редактировалось 1 раз

robot

Шкипер

Пост 20-Ноя-2016 09:16 (спустя 28 минут)

[Q] 

Качество рекламного ролика лучше чем кино))). А я уже обрадовался(.
[Профиль]  [ЛС] 

kolipeq843

Морской Волк

Пост 20-Ноя-2016 10:34 (спустя 1 час 18 минут)

[Q] 

Маглов в Америке называют магами? Что ты курил, недоносок?
[Профиль]  [ЛС] 

salvadorD

Штурман

Пост 20-Ноя-2016 11:48 (спустя 1 час 14 минут)

[Q] 

Сходил в кино, разочаровался. Фильм оказался скушным, сюжет простой и не затягивающий.
[Профиль]  [ЛС] 

yaric_t

Штурман

256

Пост 20-Ноя-2016 13:11 (спустя 1 час 22 минуты)

[Q] 

Подождем нормального качества. За раздачу спасибо! Пиратка рулез!!!
[Профиль]  [ЛС] 

salavat1234

Гроза морей

Пост 20-Ноя-2016 13:30 (спустя 18 минут)

[Q] 

Лови бочку Автору респект!!!
[Профиль]  [ЛС] 

Раемия

Флибустьер

Пост 20-Ноя-2016 14:41 (спустя 1 час 10 минут)

[Q] 

kolipeq843, ...то что нужно курил! Маглами в Америке называют НЕ МАГОВ.

_________________
Любите кроликов!!!…и они отплатят вам тем же…
[Профиль]  [ЛС] 

Незнайка

Флибустьер

Пост 20-Ноя-2016 14:55 (спустя 14 минут)

[Q] 

Скучный и нудно долгий фильм на посмотреть один раз.
[Профиль]  [ЛС] 

BilG

Боцман

Пост 20-Ноя-2016 19:55 (спустя 5 часов)

[Q] 

Спасибо! Когда будут субтитры?
[Профиль]  [ЛС] 

Samkato

Штурман

Пост 21-Ноя-2016 02:51 (спустя 6 часов)

[Q] 

Мне показался фильм посредственным, ничего такого что цепляет
[Профиль]  [ЛС] 

viji

Корсар

Пост 21-Ноя-2016 16:14 (спустя 13 часов)

[Q] 

Вообще-то фильм не плох. Такая новая интерпретация "Люди в чёрном". Снято не плохо. Напридумывали разных забавных чудиков, да и фильм приятно смотрится. Разве, что последние 20 минут показались затянутыми.
[Профиль]  [ЛС] 

dolzhenko_92

Штурман

Пост 22-Ноя-2016 22:55 (спустя 1 день 6 часов)

[Q] 

Спасибо за раздачу Мне понравилось
[Профиль]  [ЛС] 

ketzer

Морской Волк

Пост 23-Ноя-2016 09:32 (спустя 10 часов)

[Q] 

Нормальный фильм, нескучный, смотреть приятно. Разве что сцены развязки какие-то, ну, слабоватые что ли, да и актёры стараются не все и не всегда... Да и типажи шаблонненькие местами... Но в целом - хорошо, не то чтоб новый "Гарри Поттер", но гораздо лучше, например, "Дома странных детей".
[Профиль]  [ЛС] 
Показать сообщения:    
Ответить на тему

Текущее время: Сегодня 14:10

Часовой пояс: GMT + 4



Вы не можете начинать темы
Вы не можете отвечать на сообщения
Вы не можете редактировать свои сообщения
Вы не можете удалять свои сообщения
Вы не можете голосовать в опросах
Вы не можете прикреплять файлы к сообщениям
Вы не можете скачивать файлы

▼ Вниз