ML
     
  Уважаемый Гость!
Вы можете поддержать проект и зарегистрироваться у наших партнеров - онлайн-стратегия MyLands. При регистрации в игре Вы получите код, который сможете активировать после регистрации на pirat.ca и получить 1000 дублонов.

Ваш код:
1a5b0a965618b2c406d4279ec9924ee6282c60cf
 
     

Фантастические твари и где они обитают / Fantastic Beasts and Where to Find Them (Дэвид Йейтс / David Yates) [2016 г., фэнтези, приключения, семейный, TS] Dub [Звук с CAMRip] + Original (Eng)

Ответить на тему
 
Автор
Сообщение

Пост 21-Ноя-2016 08:40

[Q] 

aleksey99

--Фантастические твари и где они обитают / Fantastic Beasts and Where to Find Them--«Открой новую главу волшебного мира Дж.К.Роулинг»-- Производство: Великобритания, США, Cinesite, Double Negative, Framestore
Год выпуска: 2016 г.
Жанр: фэнтези, приключения, семейный
Продолжительность: 02:04:00--Мировая премьера: 16 ноября 2016
Российская премьера: 17 ноября 2016, «Каро-Премьер»--Перевод: Профессиональный (полное дублирование) [Звук с CAMRip]--Режиссер: Дэвид Йейтс / David Yates--В ролях: Эдди Редмэйн, Кэтрин Уотерстон, Дэн Фоглер, Элисон Судол, Колин Фаррелл, Кармен Эджого, Эзра Миллер, Саманта Мортон, Рон Перлман, Джон Войт--Описание: 1926 год. Зоолог-волшебник Ньют Саламандер нелегально вывозит в чемодане редких магических зверей, чтобы переселить оставшихся особей в более подходящую среду обитания и, тем самым, сохранить их как вид. Но при очередном прохождении нью-йоркской таможни что-то идет не так и несколько опасных существ оказываются на воле. Саламандеру необходимо как можно быстрее упаковать разбежавшийся зверинец обратно в чемодан, ведь на его поиски уже выдвинулись местные волшебные власти. Дело осложняется назревающим конфликтом между магами и не-магами (американское название маглов), за которым стоит тайное общество анархистов-радикалов "Новый Салем". Его адепты вынашивают жуткий план по честному отъему волшебных палочек во всем мире.-- --Качество видео: TS
Контейнер: MKV
Видео кодек: AVC
Аудио кодек: AC3/MP3
Видео: 720x320 (2.25:1), 30.000 fps, AVC, 2006 Kbps
Аудио 1: 48 kHz, AC3 Dolby Digital, 2/0 (L,R) ch, ~384 kbps RUS
Аудио 2: MP3, 192 Kbps, 44.1 KHz, 2 ch ENG
Cубтитры: отсутствуют.
Общее
Уникальный идентификатор : 177411135978665345461970854812395138334 (0x8578245530D0E32E8C0934179AFE6D1E)
Полное имя : H:\Torrent2\Fantastic Beast and Where To Find Them 2016 HD-TS x264.mkv
Формат : Matroska
Версия формата : Version 4 / Version 2
Размер файла : 2,24 Гбайт
Продолжительность : 2 ч. 4 м.
Режим общего битрейта : Переменный
Общий поток : 2585 Кбит/сек
Дата кодирования : UTC 2016-11-20 20:48:55
Программа кодирования : mkvmerge v9.5.0 ('Quiet Fire') 64bit
Библиотека кодирования : libebml v1.3.4 + libmatroska v1.4.5
Видео
Идентификатор : 2
Формат : AVC
Формат/Информация : Advanced Video Codec
Профиль формата : [email protected]
Параметр CABAC формата : Да
Параметр ReFrames формата : 4 кадра
Идентификатор кодека : V_MPEG4/ISO/AVC
Продолжительность : 2 ч. 4 м.
Вид битрейта : Переменный
Битрейт : 2006 Кбит/сек
Максимальный битрейт : 62,5 Мбит/сек
Ширина : 720 пикселей
Высота : 320 пикселей
Соотношение сторон : 2,25:1
Режим частоты кадров : Постоянный
Частота кадров : 30,000 кадров/сек
Цветовое пространство : YUV
Субдискретизация насыщенности : 4:2:0
Битовая глубина : 8 бит
Тип развёртки : Прогрессивная
Бит/(Пиксели*Кадры) : 0.290
Размер потока : 1,74 Гбайт (78%)
Default : Да
Forced : Нет
Цветовой диапазон : Full
Основные цвета : BT.709
Характеристики трансфера : BT.709
Коэффициенты матрицы : BT.709
Аудио #1
Идентификатор : 1
Формат : AC-3
Формат/Информация : Audio Coding 3
Расширение режима : CM (complete main)
Параметр Endianness формата : Big
Идентификатор кодека : A_AC3
Продолжительность : 2 ч. 3 м.
Вид битрейта : Постоянный
Битрейт : 384 Кбит/сек
Каналы : 2 канала
Расположение каналов : Front: L R
Частота : 48,0 КГц
Частота кадров : 31,250 кадров/сек (1536 spf)
Метод сжатия : С потерями
Размер потока : 341 Мбайт (15%)
Заголовок : CamRip
Язык : Russian
Default : Да
Forced : Нет
Аудио #2
Идентификатор : 3
Формат : MPEG Audio
Версия формата : Version 1
Профиль формата : Layer 3
Идентификатор кодека : A_MPEG/L3
Идентификатор кодека/Подсказка : MP3
Продолжительность : 2 ч. 3 м.
Вид битрейта : Постоянный
Битрейт : 192 Кбит/сек
Каналы : 2 канала
Частота : 44,1 КГц
Частота кадров : 38,281 кадров/сек (1152 spf)
Метод сжатия : С потерями
Задержка видео : 101 мс.
Размер потока : 170 Мбайт (7%)
Заголовок : English
Библиотека кодирования : LAME1qc kI¶ЬЊчЁ / (
Язык : English
Default : Нет
Forced : Нет
Трейлер
Download / Скачать

Хотите скачать бесплатно? Зарегистрируйтесь на сайте (ссылка на регистрацию). Pirat.ca - самый быстрый торрент трекер в рунете!

Как скачивать  ·   Что такое торрент  ·   Рейтинг и ограничения

Илья_Кузьмин

Пост 21-Ноя-2016 09:24 (спустя 43 минуты)

[Q] 

лучше чем предыдущий ? стоит качать? я и так и так посмотрю вот думаю что по качеству
[Профиль]  [ЛС] 

Aleks44

Гроза морей

Пост 22-Ноя-2016 12:19 (спустя 1 день 2 часа)

[Q] 

Дэвид Йейтс режиссер фильма "Гарри Поттер" и это фильм на подобии снят, еще планируют снять 4 части фильма Фантастические твари и где они обитают в итоге 5 частей информация с Википедия
Интересная фэнтези, качество смотрительно но лучше подождать получше
[Профиль]  [ЛС] 

Voldemartop

Легенда

1547

Пост 23-Ноя-2016 15:32 (спустя 1 день 3 часа)

[Q] 

Благо Дарю aleksey99!!!
Автору респект!!! Лови бочку

_________________


МОИ РАЗДАЧИ
[Профиль]  [ЛС] 

usya5

Морской Волк

Пост 26-Ноя-2016 22:24 (спустя 3 дня)

[Q] 

Спысибо, будем смотреть!!!!
Качество по скринам - вполне..
Автору респект!!! Лови бочку
[Профиль]  [ЛС] 

sasarnd

Шкипер

Пост 27-Ноя-2016 04:16 (спустя 5 часов)

[Q] 

Прикольный!!!
[Профиль]  [ЛС] 

Dewars

Морской Волк

99

Пост 29-Ноя-2016 17:58 (спустя 2 дня 13 часов)

[Q] 


Одобрямс!
[Профиль]  [ЛС] 

piratmiheushka

Канонир

Пост 01-Дек-2016 21:15 (спустя 2 дня 3 часа)

[Q] 

Смотрел в кино. Наконец-то волшебник-главный герой не такой задрот, как гарри поттер, а хоть что-то умеет. Поэтому и фильм интереснее. Явно сюжет с намеком на продолжение. Подождите качества...
[Профиль]  [ЛС] 

kostyawerty

Штурман

Пост 02-Дек-2016 10:07 (спустя 12 часов)

[Q] 

без Гермионы уже не торт,но все равно классно вернуться в детство. Как я понимаю,с книгой никакой связи,кроме имен героев,нет
[Профиль]  [ЛС] 

Ирчик

Лоцман

Пост 03-Дек-2016 17:02 (спустя 1 день 6 часов)

[Q] 

А Гриндевальда, в конце, Джонни Депп сыграл или мне показалось???
[Профиль]  [ЛС] 

OLEG_PS2009

Флибустьер

Пост 04-Дек-2016 23:04 (спустя 1 день 6 часов)

[Q] 

Мне понравилось Всем качать!!!
[Профиль]  [ЛС] 

JaCKaL11

Морской Волк

Пост Вчера 07:50 (спустя 8 часов)

[Q] 

Не успел глянуть в кинотеатре, ну хоть так :)
[Профиль]  [ЛС] 
Показать сообщения:    
Ответить на тему

Текущее время: Сегодня 23:48

Часовой пояс: GMT + 4



Вы не можете начинать темы
Вы не можете отвечать на сообщения
Вы не можете редактировать свои сообщения
Вы не можете удалять свои сообщения
Вы не можете голосовать в опросах
Вы не можете прикреплять файлы к сообщениям
Вы не можете скачивать файлы

▼ Вниз