ML
     
  Уважаемый Гость!
Вы можете поддержать проект и зарегистрироваться у наших партнеров - онлайн-стратегия MyLands. При регистрации в игре Вы получите код, который сможете активировать после регистрации на pirat.ca и получить 1000 дублонов.

Ваш код:
bc31d8aef74c92e19ad67e34a8fa63c3b9b812fb
 
     

28 панфиловцев (Ким Дружинин, Андрей Шальопа) [2016 г., военный, драма, CAMRip] Original (RUS)

Ответить на тему
 
Автор
Сообщение

Пост 21-Ноя-2016 21:43

[Q] 

aleksey99

--28 панфиловцев-- Производство: Россия
Год выпуска: 2016 г.
Жанр: военный, драма
Продолжительность: 01:40:21--Российская премьера: 24 ноября 2016, «UPI»--Режиссер: Ким Дружинин, Андрей Шальопа--В ролях: Александр Устюгов, Яков Кучеревский, Азамат Нигманов, Олег Фёдоров, Алексей Морозов, Антон Кузнецов, Алексей Лонгин, Максим Белбородов, Дмитрий Мурашев, Виталий Коваленко--Описание: Осенью 1941-го года немецкие части, стоявшие возле Волоколамска, отделяло от Москвы каких-нибудь два часа по шоссе. Однако, на этом шоссе стояла 316-я стрелковая дивизия под командованием генерала И. В. Панфилова. Этот военачальник обладал настолько высоким авторитетом среди личного состава, что бойцы дивизии сами называли себя панфиловцами. А дивизию — панфиловской.-- --Качество видео: CAMRip
Контейнер: AVI
Видео кодек: XviD
Аудио кодек: AC3
Видео: 720x304 (2.37:1), 29.970 fps, XviD build 50 ~1747 kbps avg, 0.27 bit/pixel
Аудио: 48 kHz, AC3 Dolby Digital, 2/0 (L,R) ch, ~192 kbps
Cубтитры: отсутствуют
Общее
Полное имя : H:\Torrent2\28.GeroeV.Panfilovcev.2016.O.CAMRip.14OOMB.avi
Формат : AVI
Формат/Информация : Audio Video Interleave
Размер файла : 1,37 Гбайт
Продолжительность : 1 ч. 40 м.
Общий поток : 1951 Кбит/сек
Программа кодирования : VirtualDubMod 1.5.10.2 (build 2540/release)
Библиотека кодирования : VirtualDubMod build 2540/release
Видео
Идентификатор : 0
Формат : MPEG-4 Visual
Профиль формата : Advanced [email protected]
Параметр BVOP формата : 2
Параметр QPel формата : Нет
Параметр GMC формата : Без точки перехода
Параметр матрицы формата : Выборочная
Идентификатор кодека : XVID
Идентификатор кодека/Подсказка : XviD
Продолжительность : 1 ч. 40 м.
Битрейт : 1747 Кбит/сек
Ширина : 720 пикселей
Высота : 304 пикселя
Соотношение сторон : 2,35:1
Частота кадров : 29,970 (30000/1001) кадров/сек
Цветовое пространство : YUV
Субдискретизация насыщенности : 4:2:0
Битовая глубина : 8 бит
Тип развёртки : Прогрессивная
Метод сжатия : С потерями
Бит/(Пиксели*Кадры) : 0.266
Размер потока : 1,22 Гбайт (90%)
Библиотека кодирования : XviD 1.2.1 (UTC 2008-12-04)
Аудио
Идентификатор : 1
Формат : AC-3
Формат/Информация : Audio Coding 3
Расширение режима : CM (complete main)
Параметр Endianness формата : Big
Идентификатор кодека : 2000
Продолжительность : 1 ч. 40 м.
Вид битрейта : Постоянный
Битрейт : 192 Кбит/сек
Каналы : 2 канала
Расположение каналов : Front: L R
Частота : 48,0 КГц
Частота кадров : 31,250 кадров/сек (1536 spf)
Метод сжатия : С потерями
Размер потока : 138 Мбайт (10%)
Выравнивание : Разделение по промежуткам
Продолжительность промежутка : 33 мс. (1,00 видеокадр)
Время предзагрузки промежутка : 500 мс.
Трейлер
Download / Скачать

Хотите скачать бесплатно? Зарегистрируйтесь на сайте (ссылка на регистрацию). Pirat.ca - самый быстрый торрент трекер в рунете!

Как скачивать  ·   Что такое торрент  ·   Рейтинг и ограничения

KoNiaL_KCC

Гроза морей

Пост 21-Ноя-2016 22:03 (спустя 19 минут)

[Q] 

Раздающему респект! но качать Российский фильм в таком качестве не рискну. По релизу фильм должен быть на +100. Ждем-с Спасибо!!!
[Профиль]  [ЛС] 

kolipeq843

Морской Волк

Пост 22-Ноя-2016 00:02 (спустя 1 час 58 минут)

[Q] 

респектище!!!
но жду качества
[Профиль]  [ЛС] 

realyu

Корсар

Пост 22-Ноя-2016 03:21 (спустя 3 часа)

[Q] 

Да вроде по сэмплу и ничо, смотреть можно (я про качество). Наверное, так и сделаю. Но завтра. Кто посмотрит раньше - будьте людьми! Отпишитесь стоит ли ждать в качестве или не поможет, дескать не в картинке дело.
[Профиль]  [ЛС] 

viji

Корсар

Пост 22-Ноя-2016 13:50 (спустя 10 часов)

[Q] 

Наконец-то приличный военный фильм. Всем советую
[Профиль]  [ЛС] 

nitro1985

Корсар

Пост 22-Ноя-2016 17:11 (спустя 3 часа)

[Q] 

спасибо
будем ждать качества
Спасибо!!!
[Профиль]  [ЛС] 

S777SO35

Штурман

Пост 22-Ноя-2016 22:22 (спустя 5 часов)

[Q] 

кто скажет как качество?? Смотрибельно??
Раздающему Спасибо за Спасибо
[Профиль]  [ЛС] 

ZhekasCat

Морской Волк

35

Пост 23-Ноя-2016 00:49 (спустя 2 часа 26 минут)

[Q] 

Спасибо!!! Наконец то... Дождались.
[Профиль]  [ЛС] 

realyu

Корсар

Пост 23-Ноя-2016 03:52 (спустя 3 часа)

[Q] 

774782кто скажет как качество?? Смотрибельно??
Судя по хронометражу, отсутствию заглавных титров и резкому началу фильма с середины сцены - первых 5 минут попросту не хватает.
Первые 20 минут (дальше смотреть не стал) - практически все сцены либо в тусклом помещении, либо ночью. Соответственно, на камрипе и так-то мало что разобрать можно, а тут ещё вдобавок камера в зале периодически и сфокусироваться не может. Ко всему этому ничего особенного в фильме не происходит, экшен нулевой, одно бла-бла-бла... так что надо качества ждать, а то совсем тоска, а не кино. Ждём-с.
[Профиль]  [ЛС] 

Apostle358

Корсар

151

Пост 23-Ноя-2016 05:58 (спустя 2 часа 5 минут)

[Q] 

На такие фильмы надо ходить в кино. Совесть не позволяет качать то, что сделано качественно и на народное пожертвование.
[Профиль]  [ЛС] 

Voldemartop

Легенда

1547

Пост 23-Ноя-2016 15:34 (спустя 9 часов)

[Q] 

Благо Дарю aleksey99!!!
Лови бочку

_________________


МОИ РАЗДАЧИ
[Профиль]  [ЛС] 

klik

Лоцман

Пост 24-Ноя-2016 14:12 (спустя 22 часа)

[Q] 

Фильм отличный, смотрел в кинотеатре. 10 из 10
На форуме  [Профиль]  [ЛС] 

sk68

Шкипер

Пост 28-Ноя-2016 22:25 (спустя 4 дня)

[Q] 

за труды Лови бочку ждем качество Раздающему респект!
[Профиль]  [ЛС] 

hotabych_ru32

Юнга

Пост 02-Дек-2016 13:21 (спустя 3 дня)

[Q] 

спасибо забираю
[Профиль]  [ЛС] 

JaCKaL11

Морской Волк

Пост 05-Дек-2016 07:54 (спустя 2 дня 18 часов)

[Q] 

спасибо релизеру. заберу.
[Профиль]  [ЛС] 

errno

Шкипер

Пост 06-Дек-2016 19:18 (спустя 1 день 11 часов)

[Q] 

давно ждал...
[Профиль]  [ЛС] 
Показать сообщения:    
Ответить на тему

Текущее время: Сегодня 12:03

Часовой пояс: GMT + 4



Вы не можете начинать темы
Вы не можете отвечать на сообщения
Вы не можете редактировать свои сообщения
Вы не можете удалять свои сообщения
Вы не можете голосовать в опросах
Вы не можете прикреплять файлы к сообщениям
Вы не можете скачивать файлы

▼ Вниз