Уважаемый Гость!
Вы можете поддержать проект и зарегистрироваться у наших партнеров - онлайн-стратегия MyLands. При регистрации в игре Вы получите код, который сможете активировать после регистрации на pirat.ca и получить 1000 дублонов.

Ваш код:
78aa50a474eca84d8db013aa70ab4d3c854287b1
 
     

Изгой-один: Звёздные войны. Истории / Rogue One (Гарет Эдвардс / Gareth Edwards) [2016 г., фантастика, боевик, приключения, CAMRip] Dub

Ответить на тему
 
Автор
Сообщение

Пост 17-Дек-2016 17:56

[Q] 

aleksey99

--Изгой-один: Звёздные войны. Истории / Rogue One--«Мятеж с надеждой в сердце»-- Производство: США, Allison Shearmur Productions, Black Hangar Studios, Lucasfilm Ltd., Walt Disney Studios Motion Pictures
Год выпуска: 2016 г.
Жанр: фантастика, боевик, приключения
Продолжительность: 02:05:55--Мировая премьера: 10 декабря 2016
Российская премьера: 15 декабря 2016, «WDSSPR»--Перевод: Профессиональный (полное дублирование)--Режиссер: Гарет Эдвардс / Gareth Edwards--В ролях: Фелисити Джонс, Диего Луна, Алан Тьюдик, Донни Йен, Вэнь Цзянь, Бен Мендельсон, Форест Уитакер, Риз Ахмед, Мадс Миккельсен, Джимми Смитс--Описание: Сопротивление собирает отряд для выполнения особой миссии — надо выкрасть чертежи самого совершенного и смертоносного оружия Империи. Возглавляет бойцов неуправляемая и бесстрашная Джин Эрсо, у которой в этом самоубийственном задании есть и личные мотивы. Не всем суждено вернуться домой, но герои готовы к этому, ведь на кону судьба Галактики.-- --Качество видео: CAMRip
Контейнер: AVI
Видео кодек: XviD
Аудио кодек: AC3
Видео: 720x304 (2.37:1), 29.970 fps, XviD build 50 ~1936 kbps avg, 0.30 bit/pixel
Аудио: 48 kHz, AC3 Dolby Digital, 2/0 (L,R) ch, ~384 kbps
Cубтитры: отсутствуют.
Общее
Полное имя : H:\p9\Odin.Rog.ZveZdoVoyNi.2O16.D.CAMRip.PROPER.21OOMB.avi
Формат : AVI
Формат/Информация : Audio Video Interleave
Профиль формата : OpenDML
Размер файла : 2,05 Гбайт
Продолжительность : 2 ч. 5 м.
Общий поток : 2335 Кбит/сек
Программа кодирования : VirtualDubMod 1.5.10.2 (build 2540/release)
Библиотека кодирования : VirtualDubMod build 2540/release
Видео
Идентификатор : 0
Формат : MPEG-4 Visual
Профиль формата : Advanced [email protected]
Параметр BVOP формата : 2
Параметр QPel формата : Нет
Параметр GMC формата : Без точки перехода
Параметр матрицы формата : Выборочная
Идентификатор кодека : XVID
Идентификатор кодека/Подсказка : XviD
Продолжительность : 2 ч. 5 м.
Битрейт : 1936 Кбит/сек
Ширина : 720 пикселей
Высота : 304 пикселя
Соотношение сторон : 2,35:1
Частота кадров : 29,970 (30000/1001) кадров/сек
Цветовое пространство : YUV
Субдискретизация насыщенности : 4:2:0
Битовая глубина : 8 бит
Тип развёртки : Прогрессивная
Метод сжатия : С потерями
Бит/(Пиксели*Кадры) : 0.295
Размер потока : 1,70 Гбайт (83%)
Библиотека кодирования : XviD 1.2.1 (UTC 2008-12-04)
Аудио
Идентификатор : 1
Формат : AC-3
Формат/Информация : Audio Coding 3
Расширение режима : CM (complete main)
Параметр Endianness формата : Big
Идентификатор кодека : 2000
Продолжительность : 2 ч. 5 м.
Вид битрейта : Постоянный
Битрейт : 384 Кбит/сек
Каналы : 2 канала
Расположение каналов : Front: L R
Частота : 48,0 КГц
Частота кадров : 31,250 кадров/сек (1536 spf)
Метод сжатия : С потерями
Размер потока : 346 Мбайт (16%)
Выравнивание : Разделение по промежуткам
Продолжительность промежутка : 33 мс. (1,00 видеокадр)
Время предзагрузки промежутка : 500 мс.
Трейлер
Отсутствует около 5 минут перевода в начале.
Download / Скачать

Хотите скачать бесплатно? Зарегистрируйтесь на сайте (ссылка на регистрацию). Pirat.ca - самый быстрый торрент трекер в рунете!

Как скачивать  ·   Что такое торрент  ·   Рейтинг и ограничения

my1979

Корсар

Пост 17-Дек-2016 18:36 (спустя 40 минут)

[Q] 

смотрел в кино, минут 30-40 из фильма б вырезал - многовато болтовни, но последние минут 30-40 - огонь, Д.В. в конце порадовал
[Профиль]  [ЛС] 

zvernight

Флибустьер

Пост 17-Дек-2016 20:07 (спустя 1 час 30 минут)

[Q] 

Чертежи звезды смерти вряд ли превысили бы объем 3-5Гб, в фильме же для их хранения используется целя башня серверов с жесткими дисками. В остальном фильм вполне, Донни Йен больше всех радует своим появлением.
Добавлено спустя 2 минуты 43 секунды:
По поводу качества экранки - из-за того, что народным оператором не был отключен автофокус, полфильма картинка выглядит неразборчивым темным облаком, сильно не в фокусе. ну и походу какие-то куски в том числе концовка утрачены.
[Профиль]  [ЛС] 

atribut

Морской Волк

Пост 17-Дек-2016 22:24 (спустя 2 часа 17 минут)

[Q] 

778620Чертежи звезды смерти вряд ли превысили бы объем 3-5Гб, в фильме же для их хранения используется целя башня серверов с жесткими дисками. В остальном фильм вполне, Донни Йен больше всех радует своим появлением.
Добавлено спустя 2 минуты 43 секунды:
По поводу качества экранки - из-за того, что народным оператором не был отключен автофокус, полфильма картинка выглядит неразборчивым темным облаком, сильно не в фокусе. ну и походу какие-то куски в том числе концовка утрачены.
Одобрямс!

_________________
Подпись отключена за нарушение правил форума
[Профиль]  [ЛС] 

vaterpas55

Штурман

Пост 18-Дек-2016 00:32 (спустя 2 часа 7 минут)

[Q] 

Принцесса Лейла компьютерная такая милашка.
[Профиль]  [ЛС] 

Towelie

Корсар

13

Пост 18-Дек-2016 20:51 (спустя 20 часов)

[Q] 

спасибо за релиз,но подожду качество)))
[Профиль]  [ЛС] 

tuareg

Пост 19-Дек-2016 00:21 (спустя 3 часа)

[Q] 

778586смотрел в кино, минут 30-40 из фильма б вырезал - многовато болтовни, но последние минут 30-40 - огонь, Д.В. в конце порадовал
ДВ в конце чудесен...
[Профиль]  [ЛС] 

ГИППАРРД

Корсар

2

Пост 19-Дек-2016 17:47 (спустя 17 часов)

[Q] 

Привет смотрел все части звездные войны режиссера Джорджа Лукаса но должен сказать что самая захватывающая часть за 2005 год империя наносит ответный удар!!!!!
cs
[Профиль]  [ЛС] 

Александр44

Корсар

Пост 28-Дек-2016 11:05 (спустя 8 дней)

[Q] 

Спасибо, будем ждать качества
[Профиль]  [ЛС] 

aka_johnny

Флибустьер

Пост 18-Мар-2017 15:30 (спустя 2 месяца 21 день)

[Q] 

как тут с качеством? так себе??
[Профиль]  [ЛС] 

AIC

Штурман

Пост 19-Мар-2017 01:31 (спустя 10 часов)

[Q] 

778620Чертежи звезды смерти вряд ли превысили бы объем 3-5Гб, в фильме же для их хранения используется целя башня серверов с жесткими дисками.
Вы не внимательно смотрели фильм: это общая база хранения данных Империи, ну или одна из них (может их много, кто знает, раз её уничтожили). Наши персонажи выискивая нужный им файл, перечисляли названия проектов, прототипы, разработки. Может одно из них что-то и всплывёт в следующих историях.
Извиняюсь за никропостинг.
792005как тут с качеством? так себе??
Местами темновато. Бывают пиратки и хуже.
[Профиль]  [ЛС] 

vovav-1924

Флибустьер

Пост 07-Май-2017 23:57 (спустя 1 месяц 19 дней)

[Q] 

Раздающему респект! Пиратка рулит!
[Профиль]  [ЛС] 
Показать сообщения:    
Ответить на тему

Текущее время: Сегодня 11:37

Часовой пояс: GMT + 4



Вы не можете начинать темы
Вы не можете отвечать на сообщения
Вы не можете редактировать свои сообщения
Вы не можете удалять свои сообщения
Вы не можете голосовать в опросах
Вы не можете прикреплять файлы к сообщениям
Вы не можете скачивать файлы

▼ Вниз