Уважаемый Гость!
Вы можете поддержать проект и зарегистрироваться у наших партнеров - онлайн-стратегия MyLands. При регистрации в игре Вы получите код, который сможете активировать после регистрации на pirat.ca и получить 1000 дублонов.

Ваш код:
78aa50a474eca84d8db013aa70ab4d3c854287b1
 
     

Ёлки 5 (Тимур Бекмамбетов, Вадим Перельман, Индар Джендубаев) [2016 г., семейный, комедия, TeleSync] Original (RUS)

Ответить на тему
 
Автор
Сообщение

Пост 23-Дек-2016 09:31

[Q] 

aleksey99

--Ёлки 5--«Начинаем отмечать»-- Производство: Россия, Базелевс Продакшн
Год выпуска: 2016 г.
Жанр: семейный, комедия
Продолжительность: 01:19:13--Мировая премьера: 29 декабря 2016
Российская премьера: 22 декабря 2016, «Bazelevs Distribution»--Режиссер: Тимур Бекмамбетов, Вадим Перельман, Индар Джендубаев--В ролях: Иван Ургант, Сергей Светлаков, Гоша Куценко, Мария Шукшина, Александр Головин, Анна Хилькевич, Александр Домогаров мл., Кирилл Плетнёв, Александр Робак, Анастасия Сметанина--Описание: В этот новый год любимые герои «Ёлок» всё также делают глупости и надеются на чудо. Боре нужно как-то восстановить семейное счастье и ради этого он готов украсть у лучшего друга Жени пингвина. Лыжник и Сноубордист, так и не повзрослевшие, устраивают сумасшедшую погоню за ёлкой. Баба Маня осваивает интернет в надежде найти старую любовь. Профессор из Екатеринбурга остепенился, но теперь сам сходит с ума от ревности. На далеком Севере инженер по технике безопасности должен рискнуть и, наконец, признаться в любви. Ну а пингвину просто очень нужно сесть на яйцо…-- --Качество видео: TeleSync
Контейнер: AVI
Видео кодек: XviD
Аудио кодек: AC3
Видео: 720x336 (2.14:1), 25 fps, XviD build 50 ~2075 kbps avg, 0.34 bit/pixel
Аудио: 48 kHz, AC3 Dolby Digital, 2/0 (L,R) ch, ~384 kbps
Cубтитры: отсутствуют
Общее
Полное имя : H:\Torrent2\ELki.5.2O16.D.TS.14OOMB.avi
Формат : AVI
Формат/Информация : Audio Video Interleave
Размер файла : 1,37 Гбайт
Продолжительность : 1 ч. 19 м.
Общий поток : 2470 Кбит/сек
Программа кодирования : VirtualDubMod 1.5.10.2 (build 2540/release)
Библиотека кодирования : VirtualDubMod build 2540/release
Видео
Идентификатор : 0
Формат : MPEG-4 Visual
Профиль формата : Advanced [email protected]
Параметр BVOP формата : 2
Параметр QPel формата : Нет
Параметр GMC формата : Без точки перехода
Параметр матрицы формата : Выборочная
Идентификатор кодека : XVID
Идентификатор кодека/Подсказка : XviD
Продолжительность : 1 ч. 19 м.
Битрейт : 2076 Кбит/сек
Ширина : 720 пикселей
Высота : 336 пикселей
Соотношение сторон : 2,143
Частота кадров : 25,000 кадров/сек
Цветовое пространство : YUV
Субдискретизация насыщенности : 4:2:0
Битовая глубина : 8 бит
Тип развёртки : Прогрессивная
Метод сжатия : С потерями
Бит/(Пиксели*Кадры) : 0.343
Размер потока : 1,15 Гбайт (84%)
Библиотека кодирования : XviD 1.2.1 (UTC 2008-12-04)
Аудио
Идентификатор : 1
Формат : AC-3
Формат/Информация : Audio Coding 3
Расширение режима : CM (complete main)
Параметр Endianness формата : Big
Идентификатор кодека : 2000
Продолжительность : 1 ч. 19 м.
Вид битрейта : Постоянный
Битрейт : 384 Кбит/сек
Каналы : 2 канала
Расположение каналов : Front: L R
Частота : 48,0 КГц
Частота кадров : 31,250 кадров/сек (1536 spf)
Метод сжатия : С потерями
Размер потока : 218 Мбайт (16%)
Выравнивание : Разделение по промежуткам
Продолжительность промежутка : 40 мс. (1,00 видеокадр)
Время предзагрузки промежутка : 500 мс.
Трейлер--
Download / Скачать

Хотите скачать бесплатно? Зарегистрируйтесь на сайте (ссылка на регистрацию). Pirat.ca - самый быстрый торрент трекер в рунете!

Как скачивать  ·   Что такое торрент  ·   Рейтинг и ограничения

plistikanatolii

Морской Волк

Пост 23-Дек-2016 13:31 (спустя 4 часа)

[Q] 

что то с выходом очередных серий всё тоскливее и тоскливее.а так спасибо.и мекмамбетову
[Профиль]  [ЛС] 

zvernight

Флибустьер

Пост 23-Дек-2016 17:13 (спустя 3 часа)

[Q] 

Что-то с этим кинопоиском не так или фильм такой..., что у него рейтинг ниже даже чем у Плохого Санты при чем в два раза почти.
[Профиль]  [ЛС] 

aka_johnny

Флибустьер

Пост 23-Дек-2016 22:48 (спустя 5 часов)

[Q] 

rum
ну ееелки)
Лови бочку
[Профиль]  [ЛС] 

swallow13

Шкипер

Пост 26-Дек-2016 03:22 (спустя 2 дня 4 часа)

[Q] 

Видео смотрибельно, но звук отбил всё желание досмотреть
[Профиль]  [ЛС] 

urik

Морской Волк

Пост 28-Дек-2016 14:05 (спустя 2 дня 10 часов)

[Q] 

Спасибо!!! Лови бочку
[Профиль]  [ЛС] 

Poleno

Лоцман

Пост 31-Дек-2016 14:00 (спустя 2 дня 23 часа)

[Q] 

Звук... подожду чистого...
[Профиль]  [ЛС] 

manapovav

Корсар

Пост 01-Янв-2017 17:18 (спустя 1 день 3 часа)

[Q] 

Как качество?
[Профиль]  [ЛС] 

aniaok

Лоцман

Пост 04-Янв-2017 22:20 (спустя 3 дня)

[Q] 

фильм обрывается на самом интересном месте. звук и картинка смотрибельны.
[Профиль]  [ЛС] 

test2013

Лоцман

Пост 07-Янв-2017 18:40 (спустя 2 дня 20 часов)

[Q] 

да, везде только 01:19:13 - кто нашел полную версию или хотя бы концовку отдельно?
[Профиль]  [ЛС] 

rustywka

Штурман

Пост 10-Янв-2017 10:49 (спустя 2 дня 16 часов)

[Q] 

Неперевариваю рыло Урганта... Фу мерзость!
[Профиль]  [ЛС] 

Андря

8547

Пост 10-Янв-2017 13:10 (спустя 2 часа 21 минута)

[Q] 

782066Неперевариваю рыло Урганта... Фу мерзость!
так его кушать не нужно.

_________________
Като Тешекика
[Профиль]  [ЛС] 

kostya77

Шкипер

Пост 05-Фев-2017 23:04 (спустя 26 дней)

[Q] 

Бред,
а я еще и в кинотеатр на него пошел, компанией!!
фильм наталкивает на мысль:
российский кинематограф как и автопром - БЕЗНАДЕЖЕН!
[Профиль]  [ЛС] 

woger68

Корсар

Пост 06-Фев-2017 21:37 (спустя 22 часа)

[Q] 

Один раз для разнообразия. Автору респект!!!
[Профиль]  [ЛС] 

Sevasiy59

Пост 20-Фев-2017 18:10 (спустя 13 дней)

[Q] 

начиная с третьих елок, пошел полный отстой. первые две серии были интересные. и чем дальше, тем хуже. спасибо, что дали здесь посмотреть, а то пришлось бы, выходя из кинотеатра, биться головой об стену.
[Профиль]  [ЛС] 

vovav-1924

Флибустьер

Пост 25-Мар-2017 20:01 (спустя 1 месяц 5 дней)

[Q] 

Спасибо!!! Раздающему респект!
[Профиль]  [ЛС] 

Miks1977

Корсар

Пост 02-Июн-2017 19:03 (спустя 2 месяца 7 дней)

[Q] 

Я думал закончились Ёлки, однако в новостях пишут закончились съемки очередной саги.
[Профиль]  [ЛС] 

hotabych_ru32

Шкипер

Пост 06-Авг-2017 16:33 (спустя 2 месяца 3 дня)

[Q] 

непонимаю этот фильм но для супруги заберу она любит эти пихты
[Профиль]  [ЛС] 

ГИППАРРД

Корсар

2

Пост 15-Ноя-2017 10:12 (спустя 3 месяца 8 дней)

[Q] 

Авторам респект и большое спасибо за труды!!!!!
[Профиль]  [ЛС] 
Показать сообщения:    
Ответить на тему

Текущее время: Сегодня 11:46

Часовой пояс: GMT + 4



Вы не можете начинать темы
Вы не можете отвечать на сообщения
Вы не можете редактировать свои сообщения
Вы не можете удалять свои сообщения
Вы не можете голосовать в опросах
Вы не можете прикреплять файлы к сообщениям
Вы не можете скачивать файлы

▼ Вниз