Уважаемый Гость!
Вы можете поддержать проект и зарегистрироваться у наших партнеров - онлайн-стратегия MyLands. При регистрации в игре Вы получите код, который сможете активировать после регистрации на pirat.ca и получить 1000 дублонов.

Ваш код:
0f1be5072d2fb8a64c7adec1c9570e0522699fb5
 
     

Кредо убийцы / Assassin's Creed (Джастин Курзель / Justin Kurzel) [2016 г., фантастика, фэнтези, боевик, приключения, CamRip] MVO [КОЛОБОК]

Ответить на тему
 
Автор
Сообщение

Пост 28-Дек-2016 21:42

[Q] 

aleksey99

--Кредо убийцы / Assassin's Creed--«Welcome to the Spanish Inquisition»-- Производство: Великобритания, Франция, Гонконг, США, Alpha Pictures, CatchPlay, Ubisoft, Ubisoft Motion Pictures
Год выпуска: 2016 г.
Жанр: фантастика, фэнтези, боевик, приключения
Продолжительность: 01:41:05--Мировая премьера: 14 декабря 2016
Российская премьера: 5 января 2017, «Двадцатый Век Фокс СНГ»--Перевод: Любительский многоголосый [КОЛОБОК]--Режиссер: Джастин Курзель / Justin Kurzel--В ролях: Майкл Фассбендер, Марион Котийяр, Джереми Айронс, Брендан Глисон, Шарлотта Рэмплинг, Майкл Кеннет Уильямс, Дени Меноше, Ариана Лабед, Халид Абдалла, Эсси Дэвис--Описание: Благодаря революционным технологиям, позволяющим вызвать в памяти воспоминания прежних поколений, Каллум Линч проживает приключения своего предка Агилара в Испании 15-го века. Каллум узнает, что является потомком членов загадочного тайного общества ассасинов. Накопив невероятные знания и навыки, он вступает в противостояние с могущественной и жестокой организацией тамплиеров в наши дни.-- --Качество видео: CamRip
Контейнер: AVI
Видео кодек: XviD
Аудио кодек: AC3
Видео: 720x304 (2.37:1), 29.970 fps, XviD build 50 ~1732 kbps avg, 0.26 bit/pixel
Аудио: 48 kHz, AC3 Dolby Digital, 2/0 (L,R) ch, ~192 kbps
Cубтитры: отсутствуют.
Общее
Полное имя : H:\Torrent2\Kredo.KiLLera.2016.P.TS.14OOMB.avi
Формат : AVI
Формат/Информация : Audio Video Interleave
Размер файла : 1,37 Гбайт
Продолжительность : 1 ч. 41 м.
Общий поток : 1936 Кбит/сек
Программа кодирования : VirtualDubMod 1.5.10.2 (build 2540/release)
Библиотека кодирования : VirtualDubMod build 2540/release
Видео
Идентификатор : 0
Формат : MPEG-4 Visual
Профиль формата : Advanced [email protected]
Параметр BVOP формата : 2
Параметр QPel формата : Нет
Параметр GMC формата : Без точки перехода
Параметр матрицы формата : Выборочная
Идентификатор кодека : XVID
Идентификатор кодека/Подсказка : XviD
Продолжительность : 1 ч. 41 м.
Битрейт : 1732 Кбит/сек
Ширина : 720 пикселей
Высота : 304 пикселя
Соотношение сторон : 2,35:1
Частота кадров : 29,970 (30000/1001) кадров/сек
Цветовое пространство : YUV
Субдискретизация насыщенности : 4:2:0
Битовая глубина : 8 бит
Тип развёртки : Прогрессивная
Метод сжатия : С потерями
Бит/(Пиксели*Кадры) : 0.264
Размер потока : 1,22 Гбайт (89%)
Библиотека кодирования : XviD 1.2.1 (UTC 2008-12-04)
Аудио
Идентификатор : 1
Формат : AC-3
Формат/Информация : Audio Coding 3
Расширение режима : CM (complete main)
Параметр Endianness формата : Big
Идентификатор кодека : 2000
Продолжительность : 1 ч. 41 м.
Вид битрейта : Постоянный
Битрейт : 192 Кбит/сек
Каналы : 2 канала
Расположение каналов : Front: L R
Частота : 48,0 КГц
Частота кадров : 31,250 кадров/сек (1536 spf)
Метод сжатия : С потерями
Размер потока : 139 Мбайт (10%)
Выравнивание : Разделение по промежуткам
Продолжительность промежутка : 33 мс. (1,00 видеокадр)
Время предзагрузки промежутка : 500 мс.
Трейлер
Download / Скачать

Хотите скачать бесплатно? Зарегистрируйтесь на сайте (ссылка на регистрацию). Pirat.ca - самый быстрый торрент трекер в рунете!

Как скачивать  ·   Что такое торрент  ·   Рейтинг и ограничения

lightmaster

Гроза морей

Пост 28-Дек-2016 23:22 (спустя 1 час 40 минут)

[Q] 

Спрашивать про чё- не имеет смысла... Лови бочку
[Профиль]  [ЛС] 

bolin

Флибустьер

Пост 28-Дек-2016 23:25 (спустя 3 минуты)

[Q] 

За оперативность Лови бочку
[Профиль]  [ЛС] 

jofrei53

Флибустьер

Пост 29-Дек-2016 00:28 (спустя 1 час 2 минуты)

[Q] 

Спасибо! Заинтересовало...Посмотрим. Автору респект!!! Лови бочку
[Профиль]  [ЛС] 

bjb13

Корсар

347

Пост 29-Дек-2016 02:27 (спустя 1 час 58 минут)

[Q] 

За скорость Лови бочку Но смотреть в таком качестве, даже плохую экранизацию, не охота. В ожидании FullHD с дубляжём dy
[Профиль]  [ЛС] 

Zha-pol

Легенда

Пост 29-Дек-2016 21:56 (спустя 19 часов)

[Q] 

За оперативность Спасибо!!! Но не смотрибельно , судя по скринам

_________________
[Профиль]  [ЛС] 

manapovav

Корсар

Пост 01-Янв-2017 17:20 (спустя 2 дня 19 часов)

[Q] 

Смотреть можно?
[Профиль]  [ЛС] 

bolin

Флибустьер

Пост 02-Янв-2017 00:50 (спустя 7 часов)

[Q] 

Смотреть можно! Но сам фильм унылое соплежуйство
[Профиль]  [ЛС] 

Прораб

Легенда

Пост 02-Янв-2017 01:45 (спустя 55 минут)

[Q] 

Посмотрим и оценим унылое соплежуйство.
Лови бочку
[Профиль]  [ЛС] 

swallow13

Шкипер

Пост 04-Янв-2017 05:50 (спустя 2 дня 4 часа)

[Q] 

Автору респект!!! Картинка не сильно кривая, реклама часто, а в общем - на любителя.
[Профиль]  [ЛС] 

p00lkovnik

Шкипер

Пост 05-Янв-2017 23:16 (спустя 1 день 17 часов)

[Q] 

Оценить - сойдёт
[Профиль]  [ЛС] 

tva018

Лоцман

Пост 07-Янв-2017 23:27 (спустя 2 дня)

[Q] 

автору репект, а фильм и правда унылый, глянул сегодня в кино, куча драк и мало сюжета ....
[Профиль]  [ЛС] 

RAHAAON

Морской Волк

Пост 08-Янв-2017 16:06 (спустя 16 часов)

[Q] 

anime79
Пасибки автору!...
[Профиль]  [ЛС] 

aka_johnny

Флибустьер

Пост 14-Янв-2017 19:22 (спустя 6 дней)

[Q] 

На любителя, однозначно
[Профиль]  [ЛС] 

zvernight

Флибустьер

Пост 19-Янв-2017 00:01 (спустя 4 дня)

[Q] 

пасиб, люблю когда много драк :) Лови бочку
[Профиль]  [ЛС] 

Stormwave

Шкипер

Пост 19-Янв-2017 01:36 (спустя 1 час 34 минуты)

[Q] 

Благодарю! Давно хотел заценить
[Профиль]  [ЛС] 

effiglio

Корсар

Пост 28-Янв-2017 00:23 (спустя 8 дней)

[Q] 

Не сумели сделать ничего хорошего Автору респект!!! На любителя
[Профиль]  [ЛС] 

Sevasiy59

Пост 20-Фев-2017 18:05 (спустя 23 дня)

[Q] 

спасибо раздающему. вот было бы обидно это гвнище смотреть в синематографе! а музон, без остановки выносящий мозг, это вообще полный атсасин!
[Профиль]  [ЛС] 

mechlek

Шкипер

Пост 12-Мар-2017 23:24 (спустя 20 дней)

[Q] 

Автору спасибо. Но сам фильм не впечатлил. Может из-за качества, может еще что.
[Профиль]  [ЛС] 

tyulen29

Шкипер

Пост 17-Мар-2017 18:38 (спустя 4 дня)

[Q] 

нормально Спасибо!!! Лови бочку
[Профиль]  [ЛС] 

a s d

Морской Волк

1

Пост 30-Мар-2017 20:07 (спустя 13 дней)

[Q] 

Спасибо!! Автору респект!!!
[Профиль]  [ЛС] 

fgstern

Штурман

Пост 15-Апр-2017 03:56 (спустя 15 дней)

[Q] 

Очень мало. Ожидал гораздо большего, а сюжета на десять минут. Жаль.
[Профиль]  [ЛС] 

kugesan

61630

Пост 19-Янв-2018 18:24 (спустя 9 месяцев 4 дня)

[Q] 

Кредо убийцы / Assassin's Creed (Джастин Курзель / Justin Kurzel) [2016 г., фантастика, фэнтези, боевик, приключения, BDRip-AVC] Dub [Лицензия] + Original (Eng) + Sub (Rus, Eng)

_________________
В мире две бесконечности: вселенная и человеческая глупость - Альберт Эйнштен
«Можно вытащить человека из грязи, но нельзя вытащить грязь из человека»!
[Профиль]  [ЛС] 
Показать сообщения:    
Ответить на тему

Текущее время: Сегодня 00:26

Часовой пояс: GMT + 4



Вы не можете начинать темы
Вы не можете отвечать на сообщения
Вы не можете редактировать свои сообщения
Вы не можете удалять свои сообщения
Вы не можете голосовать в опросах
Вы не можете прикреплять файлы к сообщениям
Вы не можете скачивать файлы

▼ Вниз