Три икса: Мировое господство / xXx: Return of Xander Cage (Ди Джей Карузо / D.J. Caruso) [2017 г., боевик, триллер, приключения, TS] Dub

Ответить на тему
 
Автор
Сообщение

Пост 25-Янв-2017 23:18

[Q] 

aleksey99

--Три икса: Мировое господство / xXx: Return of Xander Cage--«Kick some ass, get the girl, and try to look dope while you're doing it»-- Производство: США, Maple Cage Productions, One Race Films, Revolution Studios Rox Productions
Год выпуска: 2017 г.
Жанр: боевик, триллер, приключения
Продолжительность: 01:37:07--Мировая премьера: 5 января 2017
Российская премьера: 19 января 2017, «Централ Партнершип»--Перевод: Профессиональный (полное дублирование)--Режиссер: Ди Джей Карузо / D.J. Caruso--В ролях: Вин Дизель, Донни Йен, Дипика Падукон, Крис У, Руби Роуз, Тони Джаа, Нина Добрев, Рори МакКанн, Тони Коллетт, Сэмюэл Л. Джексон, Айс Кьюб, Гермиона Корфилд, Тони Гонзалез, Майкл Биспинг, Ал Сапиенца, Найджел Беннетт--Описание: Ксандер Кейдж спустя годы возвращается из добровольного изгнания и попадает в безумный водоворот событий. Он собирает команду безбашенных экстремалов, вместе с которыми ему предстоит найти мощнейшее секретное оружие — «Ящик Пандоры». Действовать нужно быстро: за разработкой охотятся опасные головорезы. Ставки в смертельной игре повышаются, когда выясняется, что мировые правительства вовлечены в кровавый заговор, а на кону — судьба мира.-- --Качество видео: TS
Контейнер: AVI
Видео кодек: XviD
Аудио кодек: AC3
Видео: 720x320 (2.25:1), 24 fps, XviD build 50 ~1813 kbps avg, 0.33 bit/pixel
Аудио: 48 kHz, AC3 Dolby Digital, 2/0 (L,R) ch, ~192 kbps
Cубтитры: отсутствуют.
Общее
Полное имя : H:\Torrent2\xXx_2_2017_TS_D.avi
Формат : AVI
Формат/Информация : Audio Video Interleave
Размер файла : 1,37 Гбайт
Продолжительность : 1 ч. 37 м.
Общий поток : 2015 Кбит/сек
Программа кодирования : VirtualDubMod 1.5.10.2 (build 2540/release)
Библиотека кодирования : VirtualDubMod build 2540/release
Видео
Идентификатор : 0
Формат : MPEG-4 Visual
Профиль формата : Advanced Simple@L5
Параметр BVOP формата : 2
Параметр QPel формата : Нет
Параметр GMC формата : Без точки перехода
Параметр матрицы формата : Выборочная
Идентификатор кодека : XVID
Идентификатор кодека/Подсказка : XviD
Продолжительность : 1 ч. 37 м.
Битрейт : 1814 Кбит/сек
Ширина : 720 пикселей
Высота : 320 пикселей
Соотношение сторон : 2,25:1
Частота кадров : 24,000 кадра/сек
Цветовое пространство : YUV
Субдискретизация насыщенности : 4:2:0
Битовая глубина : 8 бит
Тип развёртки : Прогрессивная
Метод сжатия : С потерями
Бит/(Пиксели*Кадры) : 0.328
Размер потока : 1,23 Гбайт (90%)
Библиотека кодирования : XviD 1.2.1 (UTC 2008-12-04)
Аудио
Идентификатор : 1
Формат : AC-3
Формат/Информация : Audio Coding 3
Расширение режима : CM (complete main)
Параметр Endianness формата : Big
Идентификатор кодека : 2000
Продолжительность : 1 ч. 37 м.
Вид битрейта : Постоянный
Битрейт : 192 Кбит/сек
Каналы : 2 канала
Расположение каналов : Front: L R
Частота : 48,0 КГц
Частота кадров : 31,250 кадров/сек (1536 spf)
Метод сжатия : С потерями
Размер потока : 133 Мбайт (10%)
Выравнивание : Разделение по промежуткам
Продолжительность промежутка : 42 мс. (1,00 видеокадр)
Время предзагрузки промежутка : 500 мс.
Трейлер
Download / Скачать

Хотите скачать бесплатно? Зарегистрируйтесь на сайте (ссылка на регистрацию). Pirat.ca - самый быстрый торрент трекер в рунете!

Как скачивать  ·   Что такое торрент  ·   Рейтинг и ограничения

kentovito

Штурман

Пост 26-Янв-2017 10:51 (спустя 11 часов)

[Q] 

картинка вроде норм, но вот движения и драки смазаны, не стал смотреть

_________________
Крутые видосы
[Профиль]  [ЛС] 

VNXX

Корсар

Пост 26-Янв-2017 16:45 (спустя 5 часов)

[Q] 

ну и я подожду качества
[Профиль]  [ЛС] 

Kash

Лоцман

Пост 26-Янв-2017 18:23 (спустя 1 час 37 минут)

[Q] 

ну какие-то привередливые пираты)
[Профиль]  [ЛС] 

Илья_Кузьмин

Юнга

Пост 26-Янв-2017 22:26 (спустя 4 часа)

[Q] 

качество как будто записываи а качественный смартфон но звук..., соответствует качеству, СМОТРИБЕЛЬНО
[Профиль]  [ЛС] 

KoNiaL_KCC

Пост 26-Янв-2017 23:41 (спустя 1 час 15 минут)

[Q] 

давно ждал, но ещё подожду когда видео будет смотрибельно, звук норм Автору респект!!!

_________________
всё как и в ... обидел модератора, получил лычку БАН. обидно за интеллект некоторых ....
[Профиль]  [ЛС] 

neo2005

Морской Волк

Пост 03-Фев-2017 16:46 (спустя 7 дней)

[Q] 

Фильм на один разок...
[Профиль]  [ЛС] 

serded74

Морской Волк

Пост 03-Фев-2017 17:01 (спустя 14 минут)

[Q] 

В этом бреде не хватает только Супермена с Бэтмэном. На любителя
[Профиль]  [ЛС] 

Прораб

Легенда

Пост 05-Фев-2017 01:38 (спустя 1 день 8 часов)

[Q] 

Спасибо. Будем глядеть...
Лови бочку
[Профиль]  [ЛС] 

ShiT

Морской Волк

Пост 09-Фев-2017 15:57 (спустя 4 дня)

[Q] 

моё мнение об этом фильме: ужасный тупизм
[Профиль]  [ЛС] 

hotabych_ru32

Шкипер

Пост 17-Фев-2017 22:54 (спустя 8 дней)

[Q] 

дождусь нормального качества
[Профиль]  [ЛС] 

Sharifulla

Корсар

Пост 21-Фев-2017 23:55 (спустя 4 дня)

[Q] 

Скачал начал смотреть, качество не фонтан. Дождемся нормального качества. Спасибо за труды.
[Профиль]  [ЛС] 

svetla05

Морской Волк

Пост 24-Фев-2017 17:02 (спустя 2 дня 17 часов)

[Q] 

Спасибо за труды! Лови бочку
[Профиль]  [ЛС] 

Pirat177

Флибустьер

Пост 01-Мар-2017 11:40 (спустя 4 дня)

[Q] 

Не смотрю камки.. Жду HD...
[Профиль]  [ЛС] 

ГИППАРРД

Корсар

2

Пост 09-Мар-2017 10:14 (спустя 7 дней)

[Q] 

Наслышан о фильме посмотрю что за продолжение сделали!!!!
[Профиль]  [ЛС] 

vovav-1924

Флибустьер

Пост 25-Мар-2017 19:58 (спустя 16 дней)

[Q] 

Спасибо!!! Автору респект!!!
[Профиль]  [ЛС] 

feldorius

Корсар

Пост 27-Апр-2017 18:03 (спустя 1 месяц 1 день)

[Q] 

В Голливудских фильмах начинают использовать трюки Болливуда.
Докатились.
Не ожидал такого бреда.
[Профиль]  [ЛС] 

Rei1

Легенда

Пост 29-Апр-2017 20:39 (спустя 2 дня 2 часа)

[Q] 

От начального ХХХ уже мало чего осталось в этом фильме
[Профиль]  [ЛС] 

exelero07

Флибустьер

Пост 19-Июл-2018 00:14 (спустя 1 год 2 месяца)

[Q] 

Так себе фильм, хуже предыдущих
[Профиль]  [ЛС] 

Alhimik

Шкипер

17

Пост 19-Июл-2018 00:47 (спустя 33 минуты)

[Q] 

Я прогнозирую, что следующую часть надо назвать "Три икса против бомжа с дробовиком".
Если кто не понял моего утонченного юмора, посмотрите вот это- Бомж с дробовиком / Hobo with a Shotgun (Джейсон Айснер / Jason Eisener) [2011г.] (боевик, триллер, криминал) [BDRip-AVC]
[Профиль]  [ЛС] 
Показать сообщения:    
Ответить на тему

Текущее время: Сегодня 11:41

Часовой пояс: GMT + 4



Вы не можете начинать темы
Вы не можете отвечать на сообщения
Вы не можете редактировать свои сообщения
Вы не можете удалять свои сообщения
Вы не можете голосовать в опросах
Вы не можете прикреплять файлы к сообщениям
Вы не можете скачивать файлы

Майнать ▼