Уважаемый Гость!
Вы можете поддержать проект и зарегистрироваться у наших партнеров - онлайн-стратегия MyLands. При регистрации в игре Вы получите код, который сможете активировать после регистрации на pirat.ca и получить 1000 дублонов.

Ваш код:
60d6e9c000233e14387a537701beefec023ccf6a
 
     

На пятьдесят оттенков темнее / Fifty Shades Darker (Джеймс Фоули / James Foley) [2017 г., Драма, мелодрама, CamRip] Dub

Ответить на тему
 
Автор
Сообщение

Пост 11-Фев-2017 14:38

[Q] 

ribakv

Шкипер

-На пятьдесят оттенков темнее / Fifty Shades Darker-- Производство: США
Год выпуска: 2017 г.
Жанр: Драма, мелодрама
Продолжительность: 01:51:34
Мировая премьера: 7 февраля 2017
Российская премьера: 9 февраля 2017
Перевод: Профессиональный (полное дублирование)
Режиссер: Джеймс Фоули / James Foley-В ролях: Дакота Джонсон, Джейми Дорнан, Эрик Джонсон, Элоиза Мамфорд, Белла Хиткот, Рита Ора, Люк Граймс, Виктор Расук, Макс Мартини, Брюс Олтмен-Описание: Пока Кристиан Грей борется со своими внутренними демонами, Анастейша Стил вынуждена противостоять гневу и зависти тех женщин, что были с Кристианом до нее.-
Качество видео: CamRip
Контейнер: AVI
Видео кодек: XviD
Аудио кодек: AC3
Видео: 720x352, 29.970 fps, 1666 Кбит/с
Аудио: 192 kb/s, 2 ch, 48.0 KHz
Cубтитры: отсутствуют
Бюджет: $55 000 000
General
Complete name : D:\!Video\Фильмы\CAMRip\PytDesYt.Ottenkov.new.2O17.D.CAMRip.14OOMB_KOSHARA.avi
Format : AVI
Format/Info : Audio Video Interleave
File size : 1.46 GiB
Duration : 1 h 51 min
Overall bit rate : 1 870 kb/s
Writing application : VirtualDubMod 1.5.10.2 (build 2540/release)
Writing library : VirtualDubMod build 2540/release
Video
ID : 0
Format : MPEG-4 Visual
Format profile : Advanced [email protected]
Format settings, BVOP : 2
Format settings, QPel : No
Format settings, GMC : No warppoints
Format settings, Matrix : Custom
Codec ID : XVID
Codec ID/Hint : XviD
Duration : 1 h 51 min
Bit rate : 1 666 kb/s
Width : 720 pixels
Height : 352 pixels
Display aspect ratio : 2.045
Frame rate : 29.970 (30000/1001) FPS
Color space : YUV
Chroma subsampling : 4:2:0
Bit depth : 8 bits
Scan type : Progressive
Compression mode : Lossy
Bits/(Pixel*Frame) : 0.219
Stream size : 1.30 GiB (89%)
Writing library : XviD 1.2.1 (UTC 2008-12-04)
Audio
ID : 1
Format : AC-3
Format/Info : Audio Coding 3
Mode extension : CM (complete main)
Format settings, Endianness : Big
Codec ID : 2000
Duration : 1 h 51 min
Bit rate mode : Constant
Bit rate : 192 kb/s
Channel(s) : 2 channels
Channel positions : Front: L R
Sampling rate : 48.0 kHz
Frame rate : 31.250 FPS (1536 spf)
Bit depth : 16 bits
Compression mode : Lossy
Stream size : 153 MiB (10%)
Alignment : Split accross interleaves
Interleave, duration : 33 ms (1.00 video frame)
Interleave, preload duratio : 500 ms
Присутствует реклама!
Качество только для ознакомления!
Download / Скачать

Хотите скачать бесплатно? Зарегистрируйтесь на сайте (ссылка на регистрацию). Pirat.ca - самый быстрый торрент трекер в рунете!

Как скачивать  ·   Что такое торрент  ·   Рейтинг и ограничения



Последний раз редактировалось: ribakv (2017-02-11 18:53), всего редактировалось 2 раз(а)

alexandrover

Штурман

Пост 11-Фев-2017 19:38 (спустя 5 часов)

[Q] 

Рейтинг 4,8, но посмотрит вся страна. Чисто что бы поржать :)
[Профиль]  [ЛС] 

L.Rain

Шкипер

275

Пост 12-Фев-2017 22:44 (спустя 1 день 3 часа)

[Q] 

Говно в говёном качестве.
[Профиль]  [ЛС] 

SeaSide

Штурман

Пост 12-Фев-2017 22:55 (спустя 11 минут)

[Q] 

Сегодня посмотрел с подругами его в кино. Фильм - хорошая мелодрама с элементами эротики. И много красивых кадров, весь фильм, это красивая картинка. Смотреть стоит в качестве.
[Профиль]  [ЛС] 

Мания величия

Морской Волк

Пост 17-Фев-2017 01:10 (спустя 4 дня)

[Q] 

чета как то не впечатлило совсем 1 фильм был круче все остальное ПАРОДИЯ

_________________
[Профиль]  [ЛС] 

olmed

Гроза морей

Пост 20-Фев-2017 08:50 (спустя 3 дня)

[Q] 

Подождем качества Спасибо!!!
На форуме  [Профиль]  [ЛС] 

Sharifulla

Корсар

Пост 20-Фев-2017 20:52 (спустя 12 часов)

[Q] 

Качество слабовато, автору решила спасибо за труды.
[Профиль]  [ЛС] 

kugesan

61637

Пост 18-Янв-2018 08:50 (спустя 10 месяцев 25 дней)

[Q] 

На пятьдесят оттенков темнее / Fifty Shades Darker (Джеймс Фоули / James Foley) [2017 г., драма, мелодрама, HDRip] Dub [Лицензия]

_________________
В мире две бесконечности: вселенная и человеческая глупость - Альберт Эйнштен
«Можно вытащить человека из грязи, но нельзя вытащить грязь из человека»!
[Профиль]  [ЛС] 
Показать сообщения:    
Ответить на тему

Текущее время: Сегодня 15:38

Часовой пояс: GMT + 4



Вы не можете начинать темы
Вы не можете отвечать на сообщения
Вы не можете редактировать свои сообщения
Вы не можете удалять свои сообщения
Вы не можете голосовать в опросах
Вы не можете прикреплять файлы к сообщениям
Вы не можете скачивать файлы

▼ Вниз