Джон Уик 2 / John Wick: Chapter Two (Чад Стахелски / Chad Stahelski) [2017 г., боевик, триллер, криминал, CamRip] Dub

Ответить на тему
 
Автор
Сообщение

Пост 19-Фев-2017 23:14

[Q] 

ribakv

Шкипер

-Джон Уик 2 / John Wick: Chapter Two-- Производство: США
Год выпуска: 2017 г.
Жанр: боевик, триллер, криминал
Продолжительность: 01:56:09
Мировая премьера: 30 января 2017
Российская премьера: 9 февраля 2017, «Централ Партнершип»
Перевод: Профессиональный (полное дублирование)
Режиссер: Чад Стахелски / Chad Stahelski-В ролях: Киану Ривз, Риккардо Скамарчио, Иэн МакШейн, Руби Роуз, Коммон, Клаудия Джерини, Лэнс Реддик, Лоренс Фишбёрн, Тобиаш Сигал, Джон Легуизамо-Описание: Когда бывший коллега Джона решает взять под свой контроль таинственную гильдию убийц, Уик вынужден выйти из отставки. Ведомый кровавой клятвой Джон отправляется в Рим, где ему придется сразиться с одними из самых опасных киллеров в мире.-
Качество видео: CamRip
Контейнер: AVI
Видео кодек: XviD
Аудио кодек: AC3
Видео: 720x304, 30.000 fps, 1591 Кбит/с
Аудио: 192 kb/s, 2 ch, 48.0 KHz
Cубтитры: отсутствуют
Сборы в США: $42 192 083
Сборы в мире: + $11 446 180 = $53 638 263
Сборы в России: $2 713 739
General
Complete name : D:\!Video\Фильмы\CAMRip\DgoN.UiK.2.2O17.D.CAMRip.14OOMB_KOSHARA.avi
Format : AVI
Format/Info : Audio Video Interleave
File size : 1.46 GiB
Duration : 1 h 56 min
Overall bit rate : 1 795 kb/s
Writing application : VirtualDubMod 1.5.10.2 (build 2540/release)
Writing library : VirtualDubMod build 2540/release
Video
ID : 0
Format : MPEG-4 Visual
Format profile : Advanced Simple@L5
Format settings, BVOP : 2
Format settings, QPel : No
Format settings, GMC : No warppoints
Format settings, Matrix : Custom
Codec ID : XVID
Codec ID/Hint : XviD
Duration : 1 h 56 min
Bit rate : 1 592 kb/s
Width : 720 pixels
Height : 304 pixels
Display aspect ratio : 2.35:1
Frame rate : 30.000 FPS
Color space : YUV
Chroma subsampling : 4:2:0
Bit depth : 8 bits
Scan type : Progressive
Compression mode : Lossy
Bits/(Pixel*Frame) : 0.242
Stream size : 1.29 GiB (89%)
Writing library : XviD 1.2.1 (UTC 2008-12-04)
Audio
ID : 1
Format : AC-3
Format/Info : Audio Coding 3
Mode extension : CM (complete main)
Format settings, Endianness : Big
Codec ID : 2000
Duration : 1 h 56 min
Bit rate mode : Constant
Bit rate : 192 kb/s
Channel(s) : 2 channels
Channel positions : Front: L R
Sampling rate : 48.0 kHz
Frame rate : 31.250 FPS (1536 spf)
Bit depth : 16 bits
Compression mode : Lossy
Stream size : 160 MiB (11%)
Alignment : Split accross interleaves
Interleave, duration : 33 ms (1.00 video frame)
Interleave, preload duratio : 500 ms
ВНИМАНИЕ! Присутствует реклама!
Качество только для ознакомление!
Download / Скачать

Хотите скачать бесплатно? Зарегистрируйтесь на сайте (ссылка на регистрацию). Pirat.ca - самый быстрый торрент трекер в рунете!

Как скачивать  ·   Что такое торрент  ·   Рейтинг и ограничения

Пост 20-Фев-2017 08:17 (спустя 9 часов)

Топик был перенесен из форума Зарубежное Кино (Трюм) в форум Новинки (CamRip/TS)
kugesan
 

pvm

Флибустьер

Пост 21-Фев-2017 18:14 (спустя 1 день 18 часов)

[Q] 

Подожду-ка на качество
[Профиль]  [ЛС] 

ctiven13

Лоцман

Пост 22-Фев-2017 17:04 (спустя 22 часа)

[Q] 

Смотрибельно?
[Профиль]  [ЛС] 

lightmaster

Гроза морей

Пост 22-Фев-2017 23:37 (спустя 6 часов)

[Q] 

Посмотреть надо обязательно!!! Лови бочку
[Профиль]  [ЛС] 

ribakv ®

Шкипер

1192

Пост 23-Фев-2017 01:06 (спустя 1 час 29 минут)

[Q] 

788765Посмотреть надо обязательно!!! Лови бочку
Спасибо!!!
[Профиль]  [ЛС] 

svetla05

Морской Волк

Пост 23-Фев-2017 15:43 (спустя 14 часов)

[Q] 

Спасибо!!! Посмотрим Лови бочку
[Профиль]  [ЛС] 

savicus

Корсар

Пост 24-Фев-2017 13:49 (спустя 22 часа)

[Q] 

Фильм заслуживает просмотра!
Хоть и качество плохое, но фильм КЛАС!
[Профиль]  [ЛС] 

andreiex

Морской Волк

Пост 24-Фев-2017 15:58 (спустя 2 часа 9 минут)

[Q] 

Судя по скриншотам, экранка ужасна. В упор не помню, о чем был первый "ДУ", но спасибо раздающему - щас скачаю и вспомню. Автору бочку за труды и оперативность (ждем в хорошем качестве) Лови бочку
[Профиль]  [ЛС] 

a s d

Морской Волк

1

Пост 30-Мар-2017 20:28 (спустя 1 месяц 6 дней)

[Q] 

Спасибо!"! Автору респект!!!
[Профиль]  [ЛС] 

ToRiR

Корсар

Пост 21-Апр-2017 19:29 (спустя 21 день)

[Q] 

Ничего интересного в фильме нет..Первая часть чуть поживей была..
[Профиль]  [ЛС] 

exelero07

Гроза морей

Пост 19-Июл-2018 00:01 (спустя 1 год 2 месяца)

[Q] 

отличный экшн, на уровне первой части
[Профиль]  [ЛС] 
Показать сообщения:    
Ответить на тему

Текущее время: Сегодня 16:36

Часовой пояс: GMT + 4



Вы не можете начинать темы
Вы не можете отвечать на сообщения
Вы не можете редактировать свои сообщения
Вы не можете удалять свои сообщения
Вы не можете голосовать в опросах
Вы не можете прикреплять файлы к сообщениям
Вы не можете скачивать файлы

Майнать ▼