Уважаемый Гость!
Вы можете поддержать проект и зарегистрироваться у наших партнеров - онлайн-стратегия MyLands. При регистрации в игре Вы получите код, который сможете активировать после регистрации на pirat.ca и получить 1000 дублонов.

Ваш код:
78aa50a474eca84d8db013aa70ab4d3c854287b1
 
     

Стражи Галактики. Часть 2 / Guardians of the Galaxy Vol. 2 (Джеймс Ганн / James Gunn) [2017 г., фантастика, боевик, приключения, CamRip] Dub [CAMRip]

Ответить на тему
 
Автор
Сообщение

Пост 08-Май-2017 12:19

[Q] 

ara1205

-Стражи Галактики. Часть 2 / Guardians of the Galaxy Vol. 2-- Производство: США
Год выпуска: 2017 г.
Жанр: фантастика, боевик, приключения
Продолжительность: 01:37:41
Мировая премьера: 19 апреля 2017
Российская премьера: 4 мая 2017
Перевод: Профессиональный (полное дублирование) [CAMRip]-Режиссер: Джеймс Ганн / James Gunn-В ролях: Карен Гиллан, Крис Пратт, Зои Салдана, Сильвестр Сталлоне, Брэдли Купер, Аарон Шварц, Вин Дизель, Крис Салливан, Дэйв Батиста, Шон Ганн и Курт Рассел-Описание: Все в сборе: землянин Питер Квилл (Звездный Лорд), молчаливый громила Дракс, зеленокожая наемница Гамора, живое дерево Грут и говорящий енот. Герои не изменяют себе и с завидной регулярностью продолжают попадать в немыслимые ситуации, выпутываясь из них почти без ущерба (а иногда даже с пользой) для окружающих. На этот раз им предстоит раскрыть одну из самых главных тайн во всей Галактике: кто же на самом деле отец Питера Квилла?- -Качество видео: CamRip
Контейнер: AVI
Видео кодек: XviD
Аудио кодек: AC3
Видео: 720x304, 30 fps, 1758 kbps avg, 0.268 bit/pixel
Аудио: 48 kHz, AC3 Dolby Digital, 2 ch, ~384 kbps
Cубтитры: отсутствуют-ВНИМАНИЕ: ПРИСУТСТВУЕТ РЕКЛАМА -
Общее
Полное имя : C:\Users\Admin\Pictures\Стражи Галактики. Часть 2\Guardians.of;the.Galaxy.Vol. 2.2017.D.CAMRip.21OOMB.avi
Формат : AVI
Формат/Информация : Audio Video Interleave
Профиль формата : OpenDML
Размер файла : 2,05 Гбайт
Продолжительность : 2 ч. 16 м.
Общий поток : 2157 Кбит/сек
Программа кодирования : VirtualDubMod 1.5.10.2 (build 2540/release)
Библиотека кодирования : VirtualDubMod build 2540/release
Видео
Идентификатор : 0
Формат : MPEG-4 Visual
Профиль формата : Advanced [email protected]
Параметр BVOP формата : 2
Параметр QPel формата : Нет
Параметр GMC формата : Без точки перехода
Параметр матрицы формата : Default (MPEG)
Идентификатор кодека : XVID
Идентификатор кодека/Подсказка : XviD
Продолжительность : 2 ч. 16 м.
Битрейт : 1758 Кбит/сек
Ширина : 720 пикселей
Высота : 304 пикселя
Соотношение сторон : 2,35:1
Частота кадров : 30,000 кадров/сек
Цветовое пространство : YUV
Субдискретизация насыщенности : 4:2:0
Битовая глубина : 8 бит
Тип развёртки : Прогрессивная
Метод сжатия : С потерями
Бит/(Пиксели*Кадры) : 0.268
Размер потока : 1,67 Гбайт (81%)
Библиотека кодирования : XviD 1.2.1 (UTC 2008-12-04)
Аудио
Идентификатор : 1
Формат : AC-3
Формат/Информация : Audio Coding 3
Расширение режима : CM (complete main)
Параметр Endianness формата : Big
Идентификатор кодека : 2000
Продолжительность : 2 ч. 16 м.
Вид битрейта : Постоянный
Битрейт : 384 Кбит/сек
Каналы : 2 канала
Расположение каналов : Front: L R
Частота : 48,0 КГц
Битовая глубина : 16 бит
Метод сжатия : С потерями
Размер потока : 374 Мбайт (18%)
Выравнивание : Разделение по промежуткам
Продолжительность промежутка : 33 мс. (1,00 видеокадр)
Время предзагрузки промежутка : 500 мс.
-
-
Download / Скачать

Хотите скачать бесплатно? Зарегистрируйтесь на сайте (ссылка на регистрацию). Pirat.ca - самый быстрый торрент трекер в рунете!

Как скачивать  ·   Что такое торрент  ·   Рейтинг и ограничения

kloctuk

3825

Пост 08-Май-2017 15:33 (спустя 3 часа)

[Q] 

Спасибо, но подождем качества...

_________________
-выстрели еще разок. -зачем? - его душа еще танцует...
[Профиль]  [ЛС] 

bolobol

Флибустьер

112

Пост 09-Май-2017 01:50 (спустя 10 часов)

[Q] 

796646Спасибо, но подождем качества...
да подождём

_________________
[Профиль]  [ЛС] 

boowww

Корсар

Пост 09-Май-2017 15:27 (спустя 13 часов)

[Q] 

Посмотрел в кинотеатре. Хорошее впечатление от просмотра первой части, было напрочь убито второй.
[Профиль]  [ЛС] 

Daar

Пост 09-Май-2017 20:52 (спустя 5 часов)

[Q] 

Ходил в кино, в общем смотреть можно, есть перекосы, но где их не бывает.
[Профиль]  [ЛС] 

zvernight

Флибустьер

Пост 09-Май-2017 22:25 (спустя 1 час 32 минуты)

[Q] 

Экранка средненькая по качеству, но если аквалайзер подкрутить то в принципе смотрибельно. Для тех кто смотрит фильмы только для ознакомления с сюжетом, перематывая половину не интересных моментов - вполне. Сюжет - ну немного поинтереснее Защитников :)
[Профиль]  [ЛС] 

Гоцик

Штурман

Пост 11-Май-2017 17:54 (спустя 1 день 19 часов)

[Q] 

Фильм понравился.
[Профиль]  [ЛС] 

homer_q

Морской Волк

Пост 11-Май-2017 19:07 (спустя 1 час 13 минут)

[Q] 

Глянул мельком. Для такого фильма можно и НD качества подождать.
[Профиль]  [ЛС] 

Towelie

Корсар

13

Пост 13-Май-2017 21:25 (спустя 2 дня 2 часа)

[Q] 

лови бочку за релиз!
п.с: кто-нибудь вкурсе когда качество?
[Профиль]  [ЛС] 

a.v.litvinenko

Юнга

Пост 13-Май-2017 23:51 (спустя 2 часа 25 минут)

[Q] 

грустные времена настали... смотреть вообще нечего, а из того что снимают фиг дождешься качества.... я уже многое забыл из того что хотел посмотреть))) раньше раз или два в неделю блокбастер какой нибудь из сети вытащишь
[Профиль]  [ЛС] 

Artreds

Корсар

808

Пост 17-Май-2017 11:59 (спустя 3 дня)

[Q] 

Несмотрибельно! Автору респект!

_________________

[Профиль]  [ЛС] 

uuunt

Лоцман

Пост 18-Май-2017 13:14 (спустя 1 день 1 час)

[Q] 

странные люди..."подожду качества", а тут раздел экранок и не бывает качества... зачем вам сюда вообще заходить? купи билет в кино, если конечно на иголку ВИЧ террориста не напорешься в седушке, и похвастайся этим в наконтакте и одноглазниках ....
[Профиль]  [ЛС] 

ketzer

Корсар

Пост 20-Май-2017 22:07 (спустя 2 дня 8 часов)

[Q] 

Фильм - угарище, бомба! Сплошное удовольствие.
[Профиль]  [ЛС] 

avistados

Лоцман

19

Пост 25-Май-2017 13:58 (спустя 4 дня)

[Q] 

Фильм красивый, но неоднозначный
С одной стороны фильм при просмотре делает заявку помимо подросткового, ещё как детское и семейное кино (по смысловой нагрузке, по красивой картинке), но с другой - шутки по несколько минут про пенисы и говнецо.
Однозначно понравится аудитории от 16 до 20 лет. Другим на вкус и цвет
[Профиль]  [ЛС] 

Мания величия

Морской Волк

Пост 29-Май-2017 01:41 (спустя 3 дня)

[Q] 

неплох неплох раздавану респект и бочка

_________________
[Профиль]  [ЛС] 

a s d

Морской Волк

1

Пост 18-Июн-2017 12:55 (спустя 20 дней)

[Q] 

Спасибо!!! ..... Автору респект!!!
[Профиль]  [ЛС] 

vespasian

Штурман

Пост 11-Июл-2017 22:35 (спустя 23 дня)

[Q] 

Раздающему спасибо за труды, но вообще смотреть невозможно.
[Профиль]  [ЛС] 

Gari4

Флибустьер

Пост 23-Окт-2017 23:57 (спустя 3 месяца 12 дней)

[Q] 

После первой части, фильм показался полным УГ, хотя посмотреть можно, но когда в восторге от первой части, а потом такое...

_________________
РЕБЯТ!! Подпишитесь на канал! Вам все равно, а мне приятно))
https://www.youtube.com/channel/UCARWKv_u4lgruLYF9N...ew_as=subscriber
[Профиль]  [ЛС] 
Показать сообщения:    
Ответить на тему

Текущее время: Сегодня 11:41

Часовой пояс: GMT + 4



Вы не можете начинать темы
Вы не можете отвечать на сообщения
Вы не можете редактировать свои сообщения
Вы не можете удалять свои сообщения
Вы не можете голосовать в опросах
Вы не можете прикреплять файлы к сообщениям
Вы не можете скачивать файлы

▼ Вниз