Форсаж 8 / The Fate of the Furious (Ф. Гэри Грей / F. Gary Gray) [2017 г., боевик, триллер, криминал, приключения, TS] Dub + Original (Eng)

Ответить на тему
 
Автор
Сообщение

Пост 13-Май-2017 21:40

[Q] 

ara1205

--Форсаж 8 / The Fate of the Furious--«Их дороги расходятся»-- Производство: США
Год выпуска: 2017 г.
Жанр: боевик, триллер, криминал, приключения
Продолжительность: 02:08:06--Мировая премьера: 4 апреля 2017
Российская премьера: 13 апреля 2017--Перевод: Профессиональный (полное дублирование)
Оригинальный аудиопоток: английский--Режиссер: Ф. Гэри Грей / F. Gary Gray--В ролях: Вин Дизель, Дуэйн Джонсон, Джейсон Стэйтем, Мишель Родригес, Тайриз Гибсон, Лудакрис, Н. Эммануэль, Курт Рассел, Скотт Иствуд--Описание: Пристегните ремни — гонка продолжается. Гавана, Берлин, Нью-Йорк — для самой крутой команды в мире нет ничего невозможного, пока они вместе. Но когда на их пути окажется одна из самых красивых женщин на планете и по совместительству королева киберпреступности, дороги друзей разойдутся.-- --Качество видео: TS
Контейнер: AVI
Видео кодек: XviD
Аудио кодек: AC3
Видео: 720x320, 25 fps, 1767 kbps avg, 0.307 bit/pixel
Аудио #1: Rus, 48 kHz, AC3 Dolby Digital, 2/0 (L,R) ch, ~256 kbps
Аудио #2: Eng, 48 kHz, AC3 Dolby Digital, 2/0 (L,R) ch, ~128 kbps
Cубтитры: отсутствуют.
Общее
Полное имя : C:\Users\Admin\Pictures\Форсаж 8\Forsag.8.2017.TS.[pirat.ca].avi
Формат : AVI
Формат/Информация : Audio Video Interleave
Размер файла : 1,94 Гбайт
Продолжительность : 2 ч. 8 м.
Общий поток : 2165 Кбит/сек
Название фильма : Форсаж 8 by D_I_A_B_L_O
Программа кодирования : VirtualDubMod 1.5.10.3 (build 2550/release)
Библиотека кодирования : VirtualDubMod build 2550/release
Примечание : Форсаж 8 by D_I_A_B_L_O
Видео
Идентификатор : 0
Формат : MPEG-4 Visual
Профиль формата : Advanced [email protected]
Параметр BVOP формата : 2
Параметр QPel формата : Нет
Параметр GMC формата : Без точки перехода
Параметр матрицы формата : Default (MPEG)
Режим смешивания : Сжатый битовый поток
Идентификатор кодека : XVID
Идентификатор кодека/Подсказка : XviD
Продолжительность : 2 ч. 8 м.
Битрейт : 1767 Кбит/сек
Ширина : 720 пикселей
Высота : 320 пикселей
Соотношение сторон : 2,25:1
Частота кадров : 25,000 кадров/сек
Цветовое пространство : YUV
Субдискретизация насыщенности : 4:2:0
Битовая глубина : 8 бит
Тип развёртки : Прогрессивная
Метод сжатия : С потерями
Бит/(Пиксели*Кадры) : 0.307
Размер потока : 1,58 Гбайт (82%)
Библиотека кодирования : XviD 67
Аудио #1
Идентификатор : 1
Формат : AC-3
Формат/Информация : Audio Coding 3
Расширение режима : CM (complete main)
Параметр Endianness формата : Big
Идентификатор кодека : 2000
Продолжительность : 2 ч. 7 м.
Вид битрейта : Постоянный
Битрейт : 256 Кбит/сек
Каналы : 2 канала
Расположение каналов : Front: L R
Частота : 48,0 КГц
Битовая глубина : 16 бит
Метод сжатия : С потерями
Размер потока : 234 Мбайт (12%)
Выравнивание : Разделение по промежуткам
Продолжительность промежутка : 40 мс. (1,00 видеокадр)
Время предзагрузки промежутка : 500 мс.
Аудио #2
Идентификатор : 2
Формат : AC-3
Формат/Информация : Audio Coding 3
Расширение режима : CM (complete main)
Параметр Endianness формата : Big
Идентификатор кодека : 2000
Продолжительность : 2 ч. 8 м.
Вид битрейта : Постоянный
Битрейт : 128 Кбит/сек
Каналы : 2 канала
Расположение каналов : Front: L R
Частота : 48,0 КГц
Битовая глубина : 16 бит
Метод сжатия : С потерями
Размер потока : 117 Мбайт (6%)
Выравнивание : Разделение по промежуткам
Продолжительность промежутка : 40 мс. (1,00 видеокадр)
Время предзагрузки промежутка : 500 мс.
Download / Скачать

Хотите скачать бесплатно? Зарегистрируйтесь на сайте (ссылка на регистрацию). Pirat.ca - самый быстрый торрент трекер в рунете!

Как скачивать  ·   Что такое торрент  ·   Рейтинг и ограничения

KTroY

Морской Волк

Пост 13-Май-2017 21:53 (спустя 13 минут)

[Q] 

как качество? стоит качать?
[Профиль]  [ЛС] 

kugesan

62873

Пост 14-Май-2017 00:14 (спустя 2 часа 21 минута)

[Q] 

KTroY, Сэмпл... для этого есть сэмпл.

_________________
В мире две бесконечности: вселенная и человеческая глупость - Альберт Эйнштен
«Можно вытащить человека из грязи, но нельзя вытащить грязь из человека»!
[Профиль]  [ЛС] 

kentu158

Корсар

Пост 14-Май-2017 05:01 (спустя 4 часа)

[Q] 

Надеюсь 9-й не замутят..)) На любителя

_________________
Не переживай о многом, и ты переживёшь многих! [img]https://nick-name.ru/forum4t3/Drause.gif[/img]
[Профиль]  [ЛС] 

[email protected]

Шкипер

Пост 14-Май-2017 21:12 (спустя 16 часов)

[Q] 

сериальчик уже получился bj
[Профиль]  [ЛС] 

vovav-1924

Флибустьер

Пост 21-Май-2017 21:04 (спустя 6 дней)

[Q] 

Спасибо!!! Автору респект!!!
[Профиль]  [ЛС] 

KTroY

Морской Волк

Пост 23-Май-2017 16:07 (спустя 1 день 19 часов)

[Q] 

Спасибо!!! по качеству средненько но смотреть можно
[Профиль]  [ЛС] 

левка

Корсар

Пост 28-Май-2017 04:13 (спустя 4 дня)

[Q] 

ara1205, Спасибо!!!
[Профиль]  [ЛС] 

Miks1977

Корсар

Пост 02-Июн-2017 19:01 (спустя 5 дней)

[Q] 

В Ютубе уже следующий Форсаж пиарят
[Профиль]  [ЛС] 

Towelie

Флибустьер

13

Пост 05-Июн-2017 00:57 (спустя 2 дня 5 часов)

[Q] 

Лови бочку спасибо за релиз!!!
[Профиль]  [ЛС] 

exelero07

Гроза морей

Пост 19-Июл-2018 00:19 (спустя 1 год 1 месяц)

[Q] 

очередной улетный форсаж!
[Профиль]  [ЛС] 
Показать сообщения:    
Ответить на тему

Текущее время: Сегодня 20:39

Часовой пояс: GMT + 4



Вы не можете начинать темы
Вы не можете отвечать на сообщения
Вы не можете редактировать свои сообщения
Вы не можете удалять свои сообщения
Вы не можете голосовать в опросах
Вы не можете прикреплять файлы к сообщениям
Вы не можете скачивать файлы

Майнать ▼