Меч короля Артура / King Arthur: Legend of the Sword (Гай Ричи / Guy Ritchie) [2017 г., фэнтези, боевик, драма, приключения, CamRip] Dub [CAMRip]

Ответить на тему
 
Автор
Сообщение

Пост 14-Май-2017 16:37

[Q] 

ara1205

-Меч короля Артура / King Arthur: Legend of the Sword-- Производство: США
Год выпуска: 2017 г.
Жанр: фэнтези, боевик, драма, приключения
Продолжительность: 01:59:45
Мировая премьера: 27 апреля 2017
Российская премьера: 11 мая 2017
Перевод: Профессиональный (полное дублирование) [CAMRip]-Режиссер: Гай Ричи / Guy Ritchie-В ролях: Чарли Ханнэм, Астрид Берже-Фрисби, Джуд Лоу, Джимон Хонсу, Эрик Бана, Эйдан Гиллен, Фредди Фокс, Крэйг МакГинли, Том Ву, Кингсли Бен-Адир-Описание: Молодой Артур живёт на задворках Лондиниума вместе со своей бандой. Он и понятия не имел о своём королевском происхождении, пока однажды не взял в руки меч Эскалибур. Меч начинает менять Артура. В результате он присоединяется к сопротивлению и таинственной молодой девушке по имени Гвиневра. Ему предстоит научиться понимать магическое оружие, которым он овладел, столкнуться со своими собственными демонами и объединить народ в борьбе против диктатора Вортигерна, убившего его родителей и завладевшего короной.- -Качество видео: CamRip
Контейнер: AVI
Видео кодек: XviD
Аудио кодек: AC3
Видео: 720x352, 23,976 fps, 1404 kbps avg, 0.231 bit/pixel
Аудио: 48 kHz, AC3 Dolby Digital, 2 ch, ~320 kbps
Cубтитры: отсутствуют-ВНИМАНИЕ: ПРИСУТСТВУЕТ РЕКЛАМА -
Общее
Полное имя : C:\Users\Admin\Pictures\Меч короля Артура\Mech.Korolya.Artura.2O17.D.CAMRip.avi
Формат : AVI
Формат/Информация : Audio Video Interleave
Размер файла : 1,45 Гбайт
Продолжительность : 1 ч. 59 м.
Общий поток : 1733 Кбит/сек
Программа кодирования : VirtualDubMod 1.5.10.2 (build 2540/release)
Библиотека кодирования : VirtualDubMod build 2540/release
Видео
Идентификатор : 0
Формат : MPEG-4 Visual
Профиль формата : Advanced Simple@L5
Параметр BVOP формата : 2
Параметр QPel формата : Нет
Параметр GMC формата : Без точки перехода
Параметр матрицы формата : Default (MPEG)
Идентификатор кодека : XVID
Идентификатор кодека/Подсказка : XviD
Продолжительность : 1 ч. 59 м.
Битрейт : 1404 Кбит/сек
Ширина : 720 пикселей
Высота : 352 пикселя
Соотношение сторон : 2,045
Частота кадров : 23,976 кадра/сек
Цветовое пространство : YUV
Субдискретизация насыщенности : 4:2:0
Битовая глубина : 8 бит
Тип развёртки : Прогрессивная
Метод сжатия : С потерями
Бит/(Пиксели*Кадры) : 0.231
Размер потока : 1,17 Гбайт (81%)
Библиотека кодирования : XviD 1.2.1 (UTC 2008-12-04)
Аудио
Идентификатор : 1
Формат : AC-3
Формат/Информация : Audio Coding 3
Расширение режима : CM (complete main)
Параметр Endianness формата : Big
Идентификатор кодека : 2000
Продолжительность : 1 ч. 59 м.
Вид битрейта : Постоянный
Битрейт : 320 Кбит/сек
Каналы : 2 канала
Расположение каналов : Front: L R
Частота : 48,0 КГц
Битовая глубина : 16 бит
Метод сжатия : С потерями
Размер потока : 274 Мбайт (18%)
Выравнивание : Разделение по промежуткам
Продолжительность промежутка : 42 мс. (1,00 видеокадр)
Время предзагрузки промежутка : 500 мс.
-
-
Download / Скачать

Хотите скачать бесплатно? Зарегистрируйтесь на сайте (ссылка на регистрацию). Pirat.ca - самый быстрый торрент трекер в рунете!

Как скачивать  ·   Что такое торрент  ·   Рейтинг и ограничения

Skat.56

Легенда

453

Пост 14-Май-2017 18:40 (спустя 2 часа 3 минуты)

[Q] 

Все бывает в первый раз...
Ну вот и я первый раз пишу что качество несмотрибельно.
Фильм сам, по себе интересный... Но звук и видео бесят ибо половины неслышно половины не видно.
По любому за релиз спасибо. Для ознакомления самое то.

_________________
[Профиль]  [ЛС] 

ph@ntomas

Шкипер

Пост 14-Май-2017 21:14 (спустя 2 часа 33 минуты)

[Q] 

Видимость 0 идем по приборам ёп
[Профиль]  [ЛС] 

stray_fdv

Штурман

Пост 16-Май-2017 04:52 (спустя 1 день 7 часов)

[Q] 

Только для ознакомления, смотреть не возможно. Будем ждать смотрибельную версию (хотя бы). Раздающему респект! Трафик потрачен зря!

_________________
[Профиль]  [ЛС] 

Mirgilip

Штурман

Пост 16-Май-2017 23:20 (спустя 18 часов)

[Q] 

Чед они тех артуров по 2 в год рожают. В натуре Дранг Нах Остен походу. Раскопали эхскаклибур войны :).
[Профиль]  [ЛС] 

Мания величия

Морской Волк

Пост 25-Май-2017 01:37 (спустя 8 дней)

[Q] 

ждем все качества не стоит ломать глаза

_________________
[Профиль]  [ЛС] 

vovav-1924

Флибустьер

Пост 26-Июн-2017 21:23 (спустя 1 месяц 1 день)

[Q] 

Автору респект!!! Раздающему респект!
[Профиль]  [ЛС] 

Кристина119

Гроза морей

Пост 26-Июн-2017 21:41 (спустя 17 минут)

[Q] 

А когда хоть приблизительно будет качество?
[Профиль]  [ЛС] 

Serg789P-NO

Штурман

Пост 01-Июл-2017 09:07 (спустя 4 дня)

[Q] 

Психологическое развитие главного героя показано правильно (с точки зрения канонов психологии)
[Профиль]  [ЛС] 

Сумрак

1724

Пост 18-Авг-2017 17:49 (спустя 1 месяц 17 дней)

[Q] 

BD [HD 720] уже есть и фильм понравился оригинальностью но на мой взгляд не раскрыт полностью сжато как то .....если смогете выдерните модераторы тока в личку пишите адрес скину .. у меня нет времени оттуда выдерать

_________________
админы помнят мою договреность - я вам народ сюда вы ко мне - моих тут больше ста ребят я привел со своего проекта просьба помочь и моему проекту, продолжу дальше сюда народ приводить
http://planet-of-free-people.com игра стратегия баги еще есть полная идет переделка 2moons под интерактивность
[Профиль]  [ЛС] 

exelero07

Гроза морей

Пост 19-Июл-2018 00:18 (спустя 11 месяцев)

[Q] 

динамичный и интересный фильм!
[Профиль]  [ЛС] 
Показать сообщения:    
Ответить на тему

Текущее время: Сегодня 11:03

Часовой пояс: GMT + 4



Вы не можете начинать темы
Вы не можете отвечать на сообщения
Вы не можете редактировать свои сообщения
Вы не можете удалять свои сообщения
Вы не можете голосовать в опросах
Вы не можете прикреплять файлы к сообщениям
Вы не можете скачивать файлы

Майнать ▼