Человек-паук: Возвращение домой / Spider-Man: Homecoming (Джон Уоттс / Jon Watts) [2017 г., фантастика, боевик, приключения, TeleSynch] Dub

Ответить на тему
 
Автор
Сообщение

Пост 11-Июл-2017 20:46

[Q] 

Су-34

Гроза морей

-Человек-паук: Возвращение домой / Spider-Man: Homecoming-- -Производство: США
Год выпуска: 2017 г.
Жанр: фантастика, боевик, приключения
Продолжительность: 02:03:23
Мировая премьера: 28 июня 2017
Российская премьера: 6 июля 2017
Перевод: Профессиональный (полное дублирование)-Режиссёр: Джон Уоттс / Jon Watts-В ролях: Том Холланд, Роберт Дауни мл., Крис Эванс, Мартин Старр, Логан Маршалл-Грин, Мариса Томей, Дональд Гловер, Майкл Китон, Зендея Коулман, Майкл Мэндо-Описание: После исторической встречи с командой Мстителей Питер Паркер возвращается домой, стараясь зажить обычной жизнью под опекой своей тети Мэй. Но теперь за Питером приглядывает еще кое-что... Тони Старк видел Человека-Паука в деле и должен стать его наставником. Когда новый злодей Стервятник угрожает уничтожить все, что дорого Питеру, приходит время доказать всем, что такое настоящий супергерой.- -Качество видео: TeleSynch
Контейнер: AVI
Видео кодек: XviD
Аудио кодек: AC3
Видео: 720x304, 30.000 fps, 1984 Кбит/с
Аудио: 384 kb/s, 2 ch, 48.0 KHz
Cубтитры: отсутствуют
Примечание: Присутствует реклама!
D:\Torrents\PaUkkk.2O17.D.TS.21OOMB.avi
General
Complete name : D:\Torrents\PaUkkk.2O17.D.TS.21OOMB.avi
Format : AVI
Format/Info : Audio Video Interleave
Format profile : OpenDML
File size : 2.05 GiB
Duration : 2h 3mn
Overall bit rate : 2 383 Kbps
Writing application : VirtualDubMod 1.5.10.2 (build 2540/release)
Writing library : VirtualDubMod build 2540/release
Video #0
ID : 0
Format : MPEG-4 Visual
Format profile : Advanced Simple@L5
Format settings, BVOP : 2
Format settings, QPel : No
Format settings, GMC : No warppoints
Format settings, Matrix : Default (MPEG)
Codec ID : XVID
Codec ID/Hint : XviD
Duration : 2h 3mn
Bit rate : 1 984 Kbps
Width : 720 pixels
Height : 304 pixels
Display aspect ratio : 2.35:1
Frame rate : 30.000 fps
Color space : YUV
Chroma subsampling : 4:2:0
Bit depth : 8 bits
Scan type : Progressive
Compression mode : Lossy
Bits/(Pixel*Frame) : 0.302
Stream size : 1.71 GiB (83%)
Writing library : XviD 1.2.1 (UTC 2008-12-04)
Audio #1
ID : 1
Format : AC-3
Format/Info : Audio Coding 3
Mode extension : CM (complete main)
Format settings, Endianness : Big
Codec ID : 2000
Duration : 2h 3mn
Bit rate mode : Constant
Bit rate : 384 Kbps
Channel count : 2 channels
Channel positions : Front: L R
Sampling rate : 48.0 KHz
Bit depth : 16 bits
Compression mode : Lossy
Stream size : 339 MiB (16%)
Alignment : Split accross interleaves
Interleave, duration : 33 ms (1.00 video frame)
Interleave, preload duration : 500 ms
Download / Скачать

Хотите скачать бесплатно? Зарегистрируйтесь на сайте (ссылка на регистрацию). Pirat.ca - самый быстрый торрент трекер в рунете!

Как скачивать  ·   Что такое торрент  ·   Рейтинг и ограничения

Мания величия

Морской Волк

Пост 13-Июл-2017 00:21 (спустя 1 день 3 часа)

[Q] 

гораздо качественней но я уже посмотрел!!! скачаю и помогу раздать!

_________________
[Профиль]  [ЛС] 

savicus

Корсар

Пост 13-Июл-2017 13:30 (спустя 13 часов)

[Q] 

Кто смотрел, фильм стоит скачивать и смотреть?
[Профиль]  [ЛС] 

corben_1

Лоцман

Пост 14-Июл-2017 12:56 (спустя 23 часа)

[Q] 

801814гораздо качественней но я уже посмотрел!!! скачаю и помогу раздать!
Дайте пожалуйста раздачу ПЛиииииз
[Профиль]  [ЛС] 

NewSky

Штурман

Пост 14-Июл-2017 17:50 (спустя 4 часа)

[Q] 

Скорости! :-)
[Профиль]  [ЛС] 

savicus

Корсар

Пост 16-Июл-2017 00:04 (спустя 1 день 6 часов)

[Q] 

Посмотрел фильм.
Очень растянули... а так тема интересная...
[Профиль]  [ЛС] 

bolin

Флибустьер

Пост 21-Июл-2017 16:06 (спустя 5 дней)

[Q] 

Спасибо за раздачу!
[Профиль]  [ЛС] 

Towelie

Корсар

13

Пост 24-Июл-2017 04:21 (спустя 2 дня 12 часов)

[Q] 

спасибо за релиз! Лови бочку
з.ы.: когда ждать качество?
[Профиль]  [ЛС] 

hotabych_ru32

Шкипер

Пост 06-Авг-2017 16:31 (спустя 13 дней)

[Q] 

возьму посмотреть
[Профиль]  [ЛС] 

valera_odes

Лоцман

Пост 02-Сен-2017 21:10 (спустя 27 дней)

[Q] 

никто не раздает ?
[Профиль]  [ЛС] 

ГИППАРРД

Корсар

2

Пост 27-Сен-2017 17:40 (спустя 24 дня)

[Q] 

Интересная версия скажите а актеры тебе???????
[Профиль]  [ЛС] 

ketzer

Корсар

Пост 30-Сен-2017 02:10 (спустя 2 дня 8 часов)

[Q] 

806798Интересная версия скажите а актеры тебе???????
И тебе, и себе - всем по разу. Главное, что Железный Человек есть.
[Профиль]  [ЛС] 

Sakoru

Корсар

Пост 12-Мар-2018 18:37 (спустя 5 месяцев 12 дней)

[Q] 

Посмотреть можно. Спасибо!!!

_________________
[Профиль]  [ЛС] 

exelero07

Гроза морей

Пост 18-Июл-2018 23:49 (спустя 4 месяца 6 дней)

[Q] 

если бы не Дауни, фильм был бы так себе
[Профиль]  [ЛС] 
Показать сообщения:    
Ответить на тему

Текущее время: Сегодня 07:07

Часовой пояс: GMT + 4



Вы не можете начинать темы
Вы не можете отвечать на сообщения
Вы не можете редактировать свои сообщения
Вы не можете удалять свои сообщения
Вы не можете голосовать в опросах
Вы не можете прикреплять файлы к сообщениям
Вы не можете скачивать файлы

Майнать ▼