Уважаемый Гость!
Вы можете поддержать проект и зарегистрироваться у наших партнеров - онлайн-стратегия MyLands. При регистрации в игре Вы получите код, который сможете активировать после регистрации на pirat.ca и получить 1000 дублонов.

Ваш код:
0f1be5072d2fb8a64c7adec1c9570e0522699fb5
 
     

Взрывная блондинка / Atomic Blonde (Дэвид Литч / David Leitch) [2017 г., боевик, триллер, детектив, TeleSynch] Dub

Ответить на тему
 
Автор
Сообщение

Пост 29-Июл-2017 19:27

[Q] 

Су-34

Гроза морей

-Взрывная блондинка / Atomic Blonde-- -Производство: США / Focus Features
Год выпуска: 2017 г.
Жанр: боевик, триллер, детектив
Продолжительность: 01:48:59
Мировая премьера: 12 марта 2017
Российская премьера: 27 июля 2017
Перевод: Профессиональный (полное дублирование)-Режиссёр: Дэвид Литч / David Leitch-В ролях: Шарлиз Терон, Джеймс МакЭвой, Эдди Марсан, Джон Гудман, Тоби Джонс, Джеймс Фолкнер, Роланд Мюллер, София Бутелла, Билл Скарсгард, Сэм Харгрейв, Тиль Швайгер-Описание: Агент Лоррейн Бротон, бриллиант в короне Секретной разведывательной службы Ее Величества, не просто мастер шпионажа: она бомбически сексуальна, взрывоопасна и использует весь арсенал своих уникальных умений во время невыполнимых миссий. В неспокойном Берлине, куда ее направляют с заданием вернуть бесценное досье, она вынуждена объединиться с агентом под прикрытием Дэвидом Персивалем. Вместе им предстоит проложить путь через тернии смертельных шпионских игр.- -Качество видео: TeleSynch
Контейнер: AVI
Видео кодек: XviD
Аудио кодек: AC3
Видео: 720x304, 23.976 fps, 1712 Кбит/с, Bits/(Pixel*Frame) : 0.326
Аудио: 192 kb/s, 2 ch, 48.0 KHz
Cубтитры: отсутствуют
General
Complete name : D:\Films\Vzrivnaya.Blonda.2O17.D.TS..avi
Format : AVI
Format/Info : Audio Video Interleave
File size : 1.46 GiB
Duration : 1h 48mn
Overall bit rate : 1 914 Kbps
Writing application : VirtualDubMod 1.5.10.2 (build 2540/release)
Writing library : VirtualDubMod build 2540/release
Video
ID : 0
Format : MPEG-4 Visual
Format profile : Advanced [email protected]
Format settings, BVOP : Yes
Format settings, QPel : No
Format settings, GMC : No warppoints
Format settings, Matrix : Default (MPEG)
Codec ID : XVID
Codec ID/Hint : XviD
Duration : 1h 48mn
Bit rate : 1 713 Kbps
Width : 720 pixels
Height : 304 pixels
Display aspect ratio : 2.35:1
Frame rate : 23.976 fps
Color space : YUV
Chroma subsampling : 4:2:0
Bit depth : 8 bits
Scan type : Progressive
Compression mode : Lossy
Bits/(Pixel*Frame) : 0.326
Stream size : 1.30 GiB (89%)
Writing library : XviD 1.2.1 (UTC 2008-12-04)
Audio
ID : 1
Format : AC-3
Format/Info : Audio Coding 3
Mode extension : CM (complete main)
Format settings, Endianness : Big
Codec ID : 2000
Duration : 1h 48mn
Bit rate mode : Constant
Bit rate : 192 Kbps
Channel(s) : 2 channels
Channel positions : Front: L R
Sampling rate : 48.0 KHz
Bit depth : 16 bits
Compression mode : Lossy
Stream size : 150 MiB (10%)
Alignment : Split accross interleaves
Interleave, duration : 42 ms (1.00 video frame)
Interleave, preload duration : 500 ms
Download / Скачать

Хотите скачать бесплатно? Зарегистрируйтесь на сайте (ссылка на регистрацию). Pirat.ca - самый быстрый торрент трекер в рунете!

Как скачивать  ·   Что такое торрент  ·   Рейтинг и ограничения

ampl

Штурман

Пост 29-Июл-2017 23:12 (спустя 3 часа)

[Q] 

Какчество как изображения так и звука полный отстой. Просмотр - это издевательство над собой
[Профиль]  [ЛС] 

Golsergio

Гроза морей

Пост 30-Июл-2017 00:50 (спустя 1 час 38 минут)

[Q] 

хотя на скринах картинка смотрибельна.....как сюжет?
[Профиль]  [ЛС] 

dibug

Лоцман

Пост 31-Июл-2017 00:14 (спустя 23 часа)

[Q] 

Гори в аду, azino777
[Профиль]  [ЛС] 

Vasylii1

Штурман

Пост 01-Авг-2017 04:37 (спустя 1 день 4 часа)

[Q] 

эти ушлепы уже на весь экран рекламу кидают. из принципа не пойдет никто к ним
[Профиль]  [ЛС] 

Михаил Эл

Шкипер

Пост 01-Авг-2017 09:57 (спустя 5 часов)

[Q] 

где скрины, чтобы оценить качество видео?
[Профиль]  [ЛС] 

RnD

Морской Волк

Пост 02-Авг-2017 22:20 (спустя 1 день 12 часов)

[Q] 

Судя по комментам необходимо еще подождать качественного рипа.
[Профиль]  [ЛС] 

Doctor Obnoxius

Штурман

Пост 03-Авг-2017 14:47 (спустя 16 часов)

[Q] 

Гнидофобы, совсем охренели, со своим козлино. Если так далее пойдёт, то этих товарищей скоро отстреливать начнут.
[Профиль]  [ЛС] 

Golsergio

Гроза морей

Пост 07-Авг-2017 11:53 (спустя 3 дня)

[Q] 

так как фильмец несмотря на "надоедливую" рекламу?
[Профиль]  [ЛС] 

kompot2017

Лоцман

Пост 10-Авг-2017 02:58 (спустя 2 дня 15 часов)

[Q] 

фильм улётный
не пожалейте времени и денег и посмотрите его в кино
[Профиль]  [ЛС] 

ketzer

Корсар

Пост 13-Сен-2017 23:02 (спустя 1 месяц 3 дня)

[Q] 

Прекрасный фильм, под стать "Агентам Анкл"
[Профиль]  [ЛС] 

AlexVl

Пост 26-Сен-2017 16:43 (спустя 12 дней)

[Q] 

Что-то в этом есть
[Профиль]  [ЛС] 
Показать сообщения:    
Ответить на тему

Текущее время: Сегодня 00:23

Часовой пояс: GMT + 4



Вы не можете начинать темы
Вы не можете отвечать на сообщения
Вы не можете редактировать свои сообщения
Вы не можете удалять свои сообщения
Вы не можете голосовать в опросах
Вы не можете прикреплять файлы к сообщениям
Вы не можете скачивать файлы

▼ Вниз