Уважаемый Гость!
Вы можете поддержать проект и зарегистрироваться у наших партнеров - онлайн-стратегия MyLands. При регистрации в игре Вы получите код, который сможете активировать после регистрации на pirat.ca и получить 1000 дублонов.

Ваш код:
0f1be5072d2fb8a64c7adec1c9570e0522699fb5
 
     

Малыш на драйве / Baby Driver (Эдгар Райт / Edgar Wright) [2017 г., боевик, триллер, криминал, музыка, TeleSynch] Dub

Ответить на тему
 
Автор
Сообщение

Пост 25-Авг-2017 19:20

[Q] 

Су-34

Гроза морей

-Малыш на драйве / Baby Driver«Сколько треков нужно для хорошего ограбления?»- -Производство: Великобритания, США
Год выпуска: 2017 г.
Жанр: боевик, триллер, криминал, музыка
Продолжительность: 01:49:29
Мировая премьера: 11 марта 2017
Российская премьера: 24 августа 2017
Перевод: Профессиональный (полное дублирование)-Режиссёр: Эдгар Райт / Edgar Wright-В ролях: Энсел Элгорт, Джон Бернтал, Джон Хэмм, Эйса Гонсалес, Micah Howard, Лили Джеймс, Морган Браун, Кевин Спейси, Morse Diggs, С.Дж. Джонс-Описание: Молодой парень по прозвищу Малыш обожает стильную музыку, быструю езду и адреналин в крови. Вся его жизнь — это сплошные погони и перестрелки, ведь он работает водителем, который помогает бандитам скрыться с места преступления. Однажды он по-настоящему влюбляется и решает выйти из игры, но сначала ему предстоит выполнить еще одно задание, которое вполне может оказаться последним в его жизни.- -Качество видео: TeleSynch
Контейнер: AVI
Видео кодек: XviD
Аудио кодек: AC3
Видео: 720x288 (2.50:1), 23.976 fps, XviD build 50 ~1703 kbps avg, 0.34 bit/pixel
Аудио: 48 kHz, AC3 Dolby Digital, 2/0 (L,R) ch, ~192 kbps
Cубтитры: отсутствуют
D:\Torrents\Baby.Driver.2017.D.14OOMB.avi
General
Complete name : D:\Torrents\Baby.Driver.2017.D.14OOMB.avi
Format : AVI
Format/Info : Audio Video Interleave
File size : 1.46 GiB
Duration : 1h 49mn
Overall bit rate : 1 905 Kbps
Writing application : VirtualDubMod 1.5.10.2 (build 2540/release)
Writing library : VirtualDubMod build 2540/release
Video #0
ID : 0
Format : MPEG-4 Visual
Format profile : Advanced [email protected]
Format settings, BVOP : 2
Format settings, QPel : No
Format settings, GMC : No warppoints
Format settings, Matrix : Default (MPEG)
Codec ID : XVID
Codec ID/Hint : XviD
Duration : 1h 49mn
Bit rate : 1 704 Kbps
Width : 720 pixels
Height : 288 pixels
Display aspect ratio : 2.500
Frame rate : 23.976 fps
Color space : YUV
Chroma subsampling : 4:2:0
Bit depth : 8 bits
Scan type : Progressive
Compression mode : Lossy
Bits/(Pixel*Frame) : 0.343
Stream size : 1.30 GiB (89%)
Writing library : XviD 1.2.1 (UTC 2008-12-04)
Audio #1
ID : 1
Format : AC-3
Format/Info : Audio Coding 3
Mode extension : CM (complete main)
Format settings, Endianness : Big
Codec ID : 2000
Duration : 1h 49mn
Bit rate mode : Constant
Bit rate : 192 Kbps
Channel count : 2 channels
Channel positions : Front: L R
Sampling rate : 48.0 KHz
Bit depth : 16 bits
Compression mode : Lossy
Stream size : 150 MiB (10%)
Alignment : Split accross interleaves
Interleave, duration : 42 ms (1.00 video frame)
Interleave, preload duration : 500 ms
Download / Скачать

Хотите скачать бесплатно? Зарегистрируйтесь на сайте (ссылка на регистрацию). Pirat.ca - самый быстрый торрент трекер в рунете!

Как скачивать  ·   Что такое торрент  ·   Рейтинг и ограничения

Кристина119

Гроза морей

Пост 25-Авг-2017 22:38 (спустя 3 часа)

[Q] 

Подождем качества, за труды спасибо Лови бочку
[Профиль]  [ЛС] 

realleo

Корсар

Пост 03-Сен-2017 02:20 (спустя 8 дней)

[Q] 

зачем ждать качества? очередное унылое гта в стиле форсажа, надоело уже чесслово
[Профиль]  [ЛС] 

ketzer

Корсар

Пост 13-Сен-2017 23:01 (спустя 10 дней)

[Q] 

На один раз, но неплохое. Сюжет бодрый, актёры хорошие.
[Профиль]  [ЛС] 

baltimor30

Корсар

Пост 11-Окт-2017 22:57 (спустя 27 дней)

[Q] 

Заценим, на раздаче постоим, все равно все др пересмотрел, трейлер понравился
[Профиль]  [ЛС] 

ГИППАРРД

Корсар

2

Пост 23-Окт-2017 21:11 (спустя 11 дней)

[Q] 

Сколько помню себя, было так если долго фильм ругают и иногда запрещают к показу фильм имеет успех-Как киноэпопеи Ю Озерова,а а также многих других!!!!!
Скачаю в любом случае и посмотрю по крайне мере не 450 Гб как у некоторых!!!!!!!!!!!!!
кодекс
[Профиль]  [ЛС] 

vasdas

Корсар

Пост 04-Ноя-2017 05:28 (спустя 11 дней)

[Q] 

соглашусь, что чем больше ругают, тем больше хочется посмотреть и проверить Раздающему респект!
[Профиль]  [ЛС] 
Показать сообщения:    
Ответить на тему

Текущее время: Сегодня 00:18

Часовой пояс: GMT + 4



Вы не можете начинать темы
Вы не можете отвечать на сообщения
Вы не можете редактировать свои сообщения
Вы не можете удалять свои сообщения
Вы не можете голосовать в опросах
Вы не можете прикреплять файлы к сообщениям
Вы не можете скачивать файлы

▼ Вниз