Бабушка лёгкого поведения (Марюс Вайсберг) [2017 г., комедия, TeleSynch]

Ответить на тему
 
Автор
Сообщение

Пост 25-Авг-2017 22:27

[Q] 

Су-34

Гроза морей

-Бабушка лёгкого поведения- -Производство: Россия
Режиссёр: Марюс Вайсберг
Жанр: комедия
Год выпуска: 2017 г.
Продолжительность: 01:19:29
Российская премьера: 17 августа 2017, «Каропрокат»-В ролях: Александр Ревва, Глюкоза, Филипп Киркоров, Елена Валюшкина, Владимир Толоконников, Евгений Герчаков, Ёла Санько, Ольга Благая, Наталья Бардо, Марина Федункив-Описание: Мастер перевоплощений Саня по прозвищу Трансформер провернул кучу афер, точь-в-точь изображая десятки персонажей. Но в этот раз он украл не у тех... Теперь у парня на хвосте очень плохие люди с пистолетами. Саня решает залечь на дно в доме престарелых в образе пожилой тети. И когда ему казалось, что он попал в безвыходную ситуацию, новый поворот судьбы дарит ему любовь и надежду превратиться в приличного человека.-Сэмпл КиноПоиск-Качество видео: TeleSynch
Контейнер: AVI
Видео кодек: XviD
Аудио кодек: AC3
Видео: 720x304, 30.000 fps, 2066 Кбит/с
Аудио: 384 kb/s, 2 ch, 48.0 KHz
Cубтитры: отсутствуют
D:\Torrents\BabUshka.LegKogo.Povedenia.2O17.avi
General
Complete name : D:\Torrents\BabUshka.LegKogo.Povedenia.2O17.avi
Format : AVI
Format/Info : Audio Video Interleave
File size : 1.37 GiB
Duration : 1h 19mn
Overall bit rate : 2 462 Kbps
Writing application : VirtualDubMod 1.5.10.2 (build 2540/release)
Writing library : VirtualDubMod build 2540/release
Video #0
ID : 0
Format : MPEG-4 Visual
Format profile : Advanced [email protected]
Format settings, BVOP : 2
Format settings, QPel : No
Format settings, GMC : No warppoints
Format settings, Matrix : Default (MPEG)
Codec ID : XVID
Codec ID/Hint : XviD
Duration : 1h 19mn
Bit rate : 2 067 Kbps
Width : 720 pixels
Height : 304 pixels
Display aspect ratio : 2.35:1
Frame rate : 30.000 fps
Color space : YUV
Chroma subsampling : 4:2:0
Bit depth : 8 bits
Scan type : Progressive
Compression mode : Lossy
Bits/(Pixel*Frame) : 0.315
Stream size : 1.15 GiB (84%)
Writing library : XviD 1.2.1 (UTC 2008-12-04)
Audio #1
ID : 1
Format : AC-3
Format/Info : Audio Coding 3
Mode extension : CM (complete main)
Format settings, Endianness : Big
Codec ID : 2000
Duration : 1h 19mn
Bit rate mode : Constant
Bit rate : 384 Kbps
Channel count : 2 channels
Channel positions : Front: L R
Sampling rate : 48.0 KHz
Bit depth : 16 bits
Compression mode : Lossy
Stream size : 218 MiB (16%)
Alignment : Split accross interleaves
Interleave, duration : 33 ms (1.00 video frame)
Interleave, preload duration : 500 ms
Download / Скачать

Хотите скачать бесплатно? Зарегистрируйтесь на сайте (ссылка на регистрацию). Pirat.ca - самый быстрый торрент трекер в рунете!

Как скачивать  ·   Что такое торрент  ·   Рейтинг и ограничения

Кристина119

Гроза морей

Пост 26-Авг-2017 16:19 (спустя 17 часов)

[Q] 

Отпишитесь кто-нибудь...как фильм?
[Профиль]  [ЛС] 

Evgesha 76

Корсар

1813

Пост 26-Авг-2017 16:39 (спустя 20 минут)

[Q] 

804753Отпишитесь кто-нибудь...как фильм?
Маразм и фантазии создателей просто запредельные. bu ca
[Профиль]  [ЛС] 

zloistas

Лоцман

Пост 26-Авг-2017 17:54 (спустя 1 час 15 минут)

[Q] 

Как это можно смотреть...
Бесплатно то даже до середины не дотерпел!
А они еще деньги за это хотят!
[Профиль]  [ЛС] 

Evgesha 76

Корсар

1813

Пост 26-Авг-2017 18:16 (спустя 21 минута)

[Q] 

804761Как это можно смотреть...
Бесплатно то даже до середины не дотерпел!
А они еще деньги за это хотят!
Полностью поддерживаю.Отстой,муть,лажа и прочее... .На какую аудиторию они вообще рассчитывали?Просто пиз... ц.
[Профиль]  [ЛС] 

usya5

Корсар

Пост 26-Авг-2017 18:51 (спустя 35 минут)

[Q] 

За раздачу - спасибо,
но, судя по отзывам, качать нет смысла!
[Профиль]  [ЛС] 

Потай

Лоцман

Пост 27-Авг-2017 00:20 (спустя 5 часов)

[Q] 

Совокупленный стыд!
[Профиль]  [ЛС] 

pvm

Флибустьер

Пост 27-Авг-2017 21:39 (спустя 21 час)

[Q] 

Даже на название ума не хватило
[Профиль]  [ЛС] 

Мания величия

Морской Волк

Пост 27-Авг-2017 22:12 (спустя 32 минуты)

[Q] 

плогиат как говорится по названию впрочем как и все остальное

_________________
[Профиль]  [ЛС] 

Skat.56

Легенда

453

Пост 25-Сен-2017 23:58 (спустя 29 дней)

[Q] 

Может я и деградант, но фильм посмотрел, неплохой, легкий фильмец.
Скоротать вечер и словить кучку лулзлов)
Людям с кинокритинизмом головного мозга смотреть не советую, остальным таки пойдет.
Сюжет содран с фильма "Дом большой мамочки"

_________________
[Профиль]  [ЛС] 
Показать сообщения:    
Ответить на тему

Текущее время: Сегодня 11:55

Часовой пояс: GMT + 4



Вы не можете начинать темы
Вы не можете отвечать на сообщения
Вы не можете редактировать свои сообщения
Вы не можете удалять свои сообщения
Вы не можете голосовать в опросах
Вы не можете прикреплять файлы к сообщениям
Вы не можете скачивать файлы

Майнать ▼