Гоголь. Начало (Егор Баранов) [2017 г., Приключения, Триллер, Детектив, CamRip]

Ответить на тему
 
Автор
Сообщение

Пост 16-Сен-2017 13:31

[Q] 

Су-34

Гроза морей

-Гоголь. Начало«Самая тёмная ночь перед рассветом»- -Производство: Россия
Режиссёр: Егор Баранов
Жанр: Приключения, Триллер, Детектив
Год выпуска: 2017 г.
Продолжительность: 01:42:18
Российская премьера: 31 августа 2017, «Каропрокат»-В ролях: Александр Петров, Олег Меньшиков, Евгений Сытый, Таисия Вилкова, Артем Ткаченко, Юлия Франц, Евгений Стычкин, Ян Цапник, Сергей Бадюк, Марта Тимофеева-Описание: Казаки, ведьмы, русалки, утопленницы и другие обитатели Диканьки встречаются лицом к лицу со своим создателем Николаем Гоголем, молодым писарем из Петербурга, который страдает загадочными припадками и может общаться с персонажами из потустороннего мира. Вместе со своим начальником, блестящим столичным следователем Яковым Гуро, начинающий писатель приезжает на Полтавщину расследовать таинственные убийства девушек. Здесь же он встречает свою любовь, которой суждено сыграть роковую роль в его судьбе. Но хватит ли юному литератору духу противостоять невообразимому? Ведь по слухам, которые активно разносят напуганные местные жители, за преступлениями стоит не кто иной, как сам Дьявол в обличии черного всадника.-Сэмпл КиноПоиск-Качество видео: CamRip
Контейнер: AVI
Видео кодек: XviD
Аудио кодек: AC3
Видео: 720x304, 25.000 fps, 1710 Кбит/с
Аудио: 192 kb/s, 2 ch, 48.0 KHz
Cубтитры: отсутствуют
Общее
Полное имя : D:\Фильмы\Gogol'.Nachalo.2O17.CAMRip.700MB.avi
Формат : AVI
Формат/Информация : Audio Video Interleave
Размер файла : 700 Мбайт
Продолжительность : 1 ч. 42 м.
Общий поток : 957 Кбит/сек
Программа кодирования : VirtualDubMod 1.5.10.2 (build 2540/release)
Библиотека кодирования : VirtualDubMod build 2540/release
Видео
Идентификатор : 0
Формат : MPEG-4 Visual
Профиль формата : Advanced [email protected]
Параметр BVOP формата : 2
Параметр QPel формата : Нет
Параметр GMC формата : Без точки перехода
Параметр матрицы формата : Default (MPEG)
Идентификатор кодека : XVID
Идентификатор кодека/Подсказка : XviD
Продолжительность : 1 ч. 42 м.
Битрейт : 819 Кбит/сек
Ширина : 720 пикселей
Высота : 304 пикселя
Соотношение сторон : 2,35:1
Частота кадров : 25,000 кадров/сек
Цветовое пространство : YUV
Субдискретизация насыщенности : 4:2:0
Битовая глубина : 8 бит
Тип развёртки : Прогрессивная
Метод сжатия : С потерями
Бит/(Пиксели*Кадры) : 0.150
Размер потока : 599 Мбайт (86%)
Библиотека кодирования : XviD 1.2.1 (UTC 2008-12-04)
Аудио
Идентификатор : 1
Формат : AC-3
Формат/Информация : Audio Coding 3
Параметр Endianness формата : Big
Идентификатор кодека : 2000
Продолжительность : 1 ч. 42 м.
Вид битрейта : Постоянный
Битрейт : 128 Кбит/сек
Каналы : 2 канала
Расположение каналов : Front: L R
Частота : 48,0 КГц
Частота кадров : 31,250 кадров/сек (1536 SPF)
Битовая глубина : 16 бит
Метод сжатия : С потерями
Размер потока : 93,7 Мбайт (13%)
Выравнивание : Разделение по промежуткам
Продолжительность промежутка : 40 мс. (1,00 видеокадр)
Время предзагрузки промежутка : 500 мс.
ServiceKind/String : Complete Main
Download / Скачать

Хотите скачать бесплатно? Зарегистрируйтесь на сайте (ссылка на регистрацию). Pirat.ca - самый быстрый торрент трекер в рунете!

Как скачивать  ·   Что такое торрент  ·   Рейтинг и ограничения

Gravida

Гроза морей

2351

Пост 16-Сен-2017 19:29 (спустя 5 часов)

[Q] 

Жена - аж подпрыгивает, как хочет_посмотреть))
Посмотрел трейлер -не впечатлился. Опять придется пиво пить, пока жена смотрит всякую х* dm
Автору респект!!!
[Профиль]  [ЛС] 

Deformator

Лоцман

Пост 16-Сен-2017 23:55 (спустя 4 часа)

[Q] 

качество не комфортное.
[Профиль]  [ЛС] 

metallist101

Лоцман

Пост 17-Сен-2017 09:01 (спустя 9 часов)

[Q] 

На уровне советского "Вия"((. Кроме того сам фильм не до конца.
[Профиль]  [ЛС] 

трактор1224

Морской Волк

Пост 18-Сен-2017 07:33 (спустя 22 часа)

[Q] 

Автору респект!!! Лови бочку
Глянем на досуге)

_________________
ну вы блин даёте....
[Профиль]  [ЛС] 

homa-roma

Шкипер

Пост 18-Сен-2017 11:27 (спустя 3 часа)

[Q] 

да фильм не до конца! Но качество норм. спс.
[Профиль]  [ЛС] 

windj

Корсар

73

Пост 23-Сен-2017 23:01 (спустя 5 дней)

[Q] 

Фильм исторический? (сарказм)

_________________
[Профиль]  [ЛС] 

genseks

Лоцман

Пост 30-Сен-2017 23:18 (спустя 7 дней)

[Q] 

Можно магнит выложить, а то не даёт скачать торрент.
[Профиль]  [ЛС] 

Gari4

Флибустьер

Пост 23-Окт-2017 23:54 (спустя 23 дня)

[Q] 

Ждем приличного качества

_________________
РЕБЯТ!! Подпишитесь на канал! Вам все равно, а мне приятно))
https://www.youtube.com/channel/UCHdnAvKKhkxeJvg3DQ...ew_as=subscriber
[Профиль]  [ЛС] 

vasdas

Корсар

Пост 04-Ноя-2017 05:25 (спустя 11 дней)

[Q] 

Спасибо!!! очень хотелось посмотреть этот фильм Раздающему респект!
[Профиль]  [ЛС] 

ГИППАРРД

Корсар

2

Пост 08-Мар-2018 18:12 (спустя 4 месяца 4 дня)

[Q] 

Вопрос когда будет версия в hdrip формате?????
[Профиль]  [ЛС] 

studentUA

Корсар

56

Пост 03-Апр-2018 22:06 (спустя 26 дней)

[Q] 

что то то стремновато качать
[Профиль]  [ЛС] 
Показать сообщения:    
Ответить на тему

Текущее время: Сегодня 10:35

Часовой пояс: GMT + 4



Вы не можете начинать темы
Вы не можете отвечать на сообщения
Вы не можете редактировать свои сообщения
Вы не можете удалять свои сообщения
Вы не можете голосовать в опросах
Вы не можете прикреплять файлы к сообщениям
Вы не можете скачивать файлы

Майнать ▼