Крым (Алексей Пиманов) [2017 г., драма, боевик, TeleSynch]

Тема закрыта
 
Автор
Сообщение

Пост 29-Сен-2017 21:21

[Q] 

Су-34

Гроза морей

-Крым- -Производство: Россия / Пиманов и партнеры
Режиссёр: Алексей Пиманов
Жанр: драма, боевик
Год выпуска: 2017 г.
Продолжительность: 01:36:1
Российская премьера: 28 сентября 2017, «Парадиз»-В ролях: Роман Курцын, Евгения Лапова, Павел Крайнов, Павел Трубинер, Борис Щербаков, Елена Котельникова, Геннадий Яковлев, Алексей Комашко, Никита Зверев, Игорь Буяновер-Описание: История о любви, вере и чести, о силе духа и настоящей дружбе на фоне реальных событий крымской весны 2014 года.
Судьба свела их в Крыму близ древнего города Мангуп-Кале. Это была любовь с первого взгляда… В непростые дни исторических перемен они должны сохранить свою жизнь и любовь.-Сэмпл КиноПоиск-Качество видео: TeleSynch
Контейнер: AVI
Видео кодек: XviD
Аудио кодек: AC3
Видео: 1639 Kb/s, 720x304, Bits/(Pixel*Frame) : 0.312
Аудио: AC3, 384 Kb/s (2 ch), 48.0 KHz
Cубтитры: отсутствуют
D:\Torrents\KRiMM.NASH!2O17.O.TS.14OOMB.avi
General
Complete name : D:\Torrents\KRiMM.NASH!2O17.O.TS.14OOMB.avi
Format : AVI
Format/Info : Audio Video Interleave
File size : 1.37 GiB
Duration : 1h 36mn
Overall bit rate : 2 032 Kbps
Writing application : VirtualDubMod 1.5.10.2 (build 2540/release)
Writing library : VirtualDubMod build 2540/release
Video #0
ID : 0
Format : MPEG-4 Visual
Format profile : Advanced Simple@L5
Format settings, BVOP : 2
Format settings, QPel : No
Format settings, GMC : No warppoints
Format settings, Matrix : Default (MPEG)
Codec ID : XVID
Codec ID/Hint : XviD
Duration : 1h 36mn
Bit rate : 1 639 Kbps
Width : 720 pixels
Height : 304 pixels
Display aspect ratio : 2.35:1
Frame rate : 23.976 fps
Color space : YUV
Chroma subsampling : 4:2:0
Bit depth : 8 bits
Scan type : Progressive
Compression mode : Lossy
Bits/(Pixel*Frame) : 0.312
Stream size : 1.10 GiB (81%)
Writing library : XviD 1.2.1 (UTC 2008-12-04)
Audio #1
ID : 1
Format : AC-3
Format/Info : Audio Coding 3
Mode extension : CM (complete main)
Format settings, Endianness : Big
Codec ID : 2000
Duration : 1h 36mn
Bit rate mode : Constant
Bit rate : 384 Kbps
Channel count : 2 channels
Channel positions : Front: L R
Sampling rate : 48.0 KHz
Bit depth : 16 bits
Compression mode : Lossy
Stream size : 265 MiB (19%)
Alignment : Split accross interleaves
Interleave, duration : 42 ms (1.00 video frame)
Interleave, preload duration : 500 ms
Download / Скачать

Хотите скачать бесплатно? Зарегистрируйтесь на сайте (ссылка на регистрацию). Pirat.ca - самый быстрый торрент трекер в рунете!

Как скачивать  ·   Что такое торрент  ·   Рейтинг и ограничения

Слепой Пью

19535

Пост 16-Фев-2018 23:35 (спустя 4 месяца 17 дней)

[Q] 

Короче - никого не караю за злостный оффтоп, просто нафиг закрываю тему, если не умеете соблюдать правила и воздерживаться от обсуждения политики в неполитическом разделе...
Удалил ВСЕ сообщения, и не стоит разводить политический срач в теме Видео. Для этих целей в Таверне специальный раздел имеется! О политике (форум) Там - продолжайте ломать копья на тему "ваты" и "бандерлогов"... А в видеораздел - приличные люди заходят, им противно смотреть на эти всплески ненависти и невоспитанности...
[Профиль]  [ЛС] 
Показать сообщения:    
Тема закрыта

Текущее время: Сегодня 11:02

Часовой пояс: GMT + 4



Вы не можете начинать темы
Вы не можете отвечать на сообщения
Вы не можете редактировать свои сообщения
Вы не можете удалять свои сообщения
Вы не можете голосовать в опросах
Вы не можете прикреплять файлы к сообщениям
Вы не можете скачивать файлы

Майнать ▼