Салют-7 (Клим Шипенко) [2017 г., драма, приключения, триллер, TeleSynch]

Ответить на тему
 
Автор
Сообщение

Пост 13-Окт-2017 19:34

[Q] 

Су-34

Гроза морей

-Салют-7 - -Производство: Россия
Режиссёр: Клим Шипенко
Жанр: драма, приключения, триллер
Год выпуска: 2017 г.
Продолжительность: 01:44:40
Озвучивание: Оригинальное
Российская премьера: 12 октября 2017, «Наше Кино»-В ролях: Владимир Вдовиченков, Павел Деревянко, Александр Самойленко, Виталий Хаев, Оксана Фандера, Любовь Аксенова, Роман Перелыгин, Полина Руденко, Александра Серебрякова, Мария Миронова-Описание: Космическая станция «Салют-7», находящаяся на орбите в беспилотном режиме, неожиданно перестает отвечать на сигналы центра управления полетом. Принято решение об отправке на орбиту спасательной экспедиции. Космический экипаж должен найти «мертвую» станцию и впервые в мире провести стыковку с 20-тонной глыбой неуправляемого железа.-Сэмпл КиноПоиск-Качество видео: TeleSynch
Контейнер: AVI
Видео кодек: XviD
Аудио кодек: AC3
Видео: 720x304, 23.976 fps, 1667 Кбит/с, Bits/(Pixel*Frame) : 0.318
Аудио: 192 kb/s, 2 ch, 48.0 KHz
Cубтитры: отсутствуют
D:\Torrents\SaLUt.7.2O17.O.TS.14OOMB.avi
General
Complete name : D:\Torrents\SaLUt.7.2O17.O.TS.14OOMB.avi
Format : AVI
Format/Info : Audio Video Interleave
File size : 1.37 GiB
Duration : 1h 44mn
Overall bit rate : 1 869 Kbps
Writing application : VirtualDubMod 1.5.10.2 (build 2540/release)
Writing library : VirtualDubMod build 2540/release
Video #0
ID : 0
Format : MPEG-4 Visual
Format profile : Advanced [email protected]
Format settings, BVOP : 2
Format settings, QPel : No
Format settings, GMC : No warppoints
Format settings, Matrix : Default (MPEG)
Codec ID : XVID
Codec ID/Hint : XviD
Duration : 1h 44mn
Bit rate : 1 668 Kbps
Width : 720 pixels
Height : 304 pixels
Display aspect ratio : 2.35:1
Frame rate : 23.976 fps
Color space : YUV
Chroma subsampling : 4:2:0
Bit depth : 8 bits
Scan type : Progressive
Compression mode : Lossy
Bits/(Pixel*Frame) : 0.318
Stream size : 1.22 GiB (89%)
Writing library : XviD 1.2.1 (UTC 2008-12-04)
Audio #1
ID : 1
Format : AC-3
Format/Info : Audio Coding 3
Mode extension : CM (complete main)
Format settings, Endianness : Big
Codec ID : 2000
Duration : 1h 44mn
Bit rate mode : Constant
Bit rate : 192 Kbps
Channel count : 2 channels
Channel positions : Front: L R
Sampling rate : 48.0 KHz
Bit depth : 16 bits
Compression mode : Lossy
Stream size : 144 MiB (10%)
Alignment : Split accross interleaves
Interleave, duration : 42 ms (1.00 video frame)
Interleave, preload duration : 500 ms
Download / Скачать

Хотите скачать бесплатно? Зарегистрируйтесь на сайте (ссылка на регистрацию). Pirat.ca - самый быстрый торрент трекер в рунете!

Как скачивать  ·   Что такое торрент  ·   Рейтинг и ограничения

трактор1224

Морской Волк

Пост 14-Окт-2017 19:06 (спустя 23 часа)

[Q] 

Спасибо!!! Лови бочку
качнем.. позырим )

_________________
ну вы блин даёте....
[Профиль]  [ЛС] 

alekzandr

Пост 14-Окт-2017 19:36 (спустя 30 минут)

[Q] 

качество, не комильфо для такого фильма...
[Профиль]  [ЛС] 

Vintorezov REG 39

Легенда

176

Пост 14-Окт-2017 22:03 (спустя 2 часа 26 минут)

[Q] 

Ждём качество .. Отказать
[Профиль]  [ЛС] 

VDGS

Корсар

Пост 14-Окт-2017 23:40 (спустя 1 час 37 минут)

[Q] 

Очень позитивный фильм, смотреть можно Супер!
[Профиль]  [ЛС] 

Мания величия

Морской Волк

Пост 15-Окт-2017 00:55 (спустя 1 час 15 минут)

[Q] 

НУ ПОЗЫРИМ НУ ЗАЦЕНИМ....

_________________
[Профиль]  [ЛС] 

Alexa

Шкипер

Пост 16-Окт-2017 14:46 (спустя 1 день 13 часов)

[Q] 

Наш ответ "Гравитации" bm
[Профиль]  [ЛС] 

LEXo

Штурман

Пост 16-Окт-2017 18:50 (спустя 4 часа)

[Q] 

Конец скомкали, видно деньги кончились. Ёбнули кувалдой по железяке, сложный электронный блок и заработал ска. Ааааа мой мозг.

_________________
Волка ноги кормят.
[Профиль]  [ЛС] 

Prorok155

Корсар

Пост 16-Окт-2017 19:56 (спустя 1 час 5 минут)

[Q] 

Спасибо. Автору респект!!! Лови бочку
[Профиль]  [ЛС] 

realleo

Корсар

Пост 17-Окт-2017 00:24 (спустя 4 часа)

[Q] 

классный фильм, наконец то наши кроме войны научились и космос показывать, на уровне голливуда! ура! рекомендую всем
[Профиль]  [ЛС] 

ГИППАРРД

Корсар

2

Пост 18-Окт-2017 17:58 (спустя 1 день 17 часов)

[Q] 

Жду не дождусь!!?!!
dc cr
[Профиль]  [ЛС] 

ГИППАРРД

Корсар

2

Пост 20-Окт-2017 12:14 (спустя 1 день 18 часов)

[Q] 

Жду скорости 3-5 мегабита в секунду!!!!!!!!!!!!!!!
handshake
[Профиль]  [ЛС] 

KoNiaL_KCC

Пост 22-Окт-2017 16:23 (спустя 2 дня 4 часа)

[Q] 

качество не смотрибельно Отказать

_________________
всё как и в ... обидел модератора, получил лычку БАН. обидно за интеллект некоторых ....
[Профиль]  [ЛС] 

Незнайка

Флибустьер

Пост 22-Окт-2017 16:33 (спустя 9 минут)

[Q] 

спасибо
Супер!
[Профиль]  [ЛС] 

ГИППАРРД

Корсар

2

Пост 23-Окт-2017 16:51 (спустя 1 день)

[Q] 

Скачаю посмотрю поддержите раздачу!!!!!
bc
[Профиль]  [ЛС] 

uuunt

Лоцман

Пост 28-Окт-2017 17:07 (спустя 5 дней)

[Q] 

посмотрел около мин 10 и тут реклама лохотрона для гопников ......удалил.....
[Профиль]  [ЛС] 

VictorSor

Шкипер

Пост 29-Окт-2017 22:06 (спустя 1 день 4 часа)

[Q] 

Смотрел в кино.
Ходульные диалоги, глупые технические и политические детали, отвратительная жирная МОРДА руководителя полетов постоянно в кадре (ты же русский - сколько дней на морозе продержишься?)))
Но если ты действительно русский и для тебя Юра Гагарин и С.П.Королев и все наши и особенно советские космонавты навеки святы, то домыслишь все и сам, так что из всего что финансирует гусский Минкульт - даже удивительно что сняли и выпустили. Ну и да, космос и стабильность (в программе "Время")) хорошо передались.
[Профиль]  [ЛС] 

vasdas

Корсар

Пост 04-Ноя-2017 05:16 (спустя 5 дней)

[Q] 

спасибо за кино Раздающему респект!
[Профиль]  [ЛС] 

ГИППАРРД

Корсар

2

Пост 05-Ноя-2017 15:17 (спустя 1 день 10 часов)

[Q] 

Фильм не скачивается в торренте что делать????? Прождал долго и кроме того не идёт скачивание пишит нуль мб с и что несколько торрентах отключены и спрашивается где сидеры и личеры????????????? Ну издеваться может не будем почему фильм не скачивается?????????
cr au
[Профиль]  [ЛС] 

ГИППАРРД

Корсар

2

Пост 14-Ноя-2017 15:30 (спустя 9 дней)

[Q] 

Фильм удалось посмотреть и скачать с другого трекера, впечатление от фильма замечательное что то видимо ещё умеют снимать?!
af
[Профиль]  [ЛС] 
Показать сообщения:    
Ответить на тему

Текущее время: Сегодня 17:33

Часовой пояс: GMT + 4



Вы не можете начинать темы
Вы не можете отвечать на сообщения
Вы не можете редактировать свои сообщения
Вы не можете удалять свои сообщения
Вы не можете голосовать в опросах
Вы не можете прикреплять файлы к сообщениям
Вы не можете скачивать файлы

Майнать ▼