Уважаемый Гость!
Вы можете поддержать проект и зарегистрироваться у наших партнеров - онлайн-стратегия MyLands. При регистрации в игре Вы получите код, который сможете активировать после регистрации на pirat.ca и получить 1000 дублонов.

Ваш код:
78aa50a474eca84d8db013aa70ab4d3c854287b1
 
     

Тор: Рагнарёк / Thor: Ragnarok (Тайка Вайтити / Taika Waititi) [2017 г., фантастика, боевик, комедия, приключения, TeleSynch] MVO

Ответить на тему
 
Автор
Сообщение

Пост 29-Окт-2017 18:22

[Q] 

Су-34

Гроза морей

-Тор: Рагнарёк / Thor: Ragnarok- -Производство: США
Год выпуска: 2017 г.
Жанр: фантастика, боевик, комедия, приключения
Продолжительность: 02:00:45
Мировая премьера: 10 октября 2017
Российская премьера: 2 ноября 2017, «WDSSPR»
Перевод: Любительский (многоголосый, закадровый) [КОЛОБОК]-Режиссёр: Тайка Вайтити / Taika Waititi-В ролях: Крис Хемсворт, Том Хиддлстон, Идрис Эльба, Энтони Хопкинс, Кейт Бланшетт, Тесса Томпсон, Джефф Голдблюм, Карл Урбан, Марк Руффало, Бенедикт Камбербэтч-Описание: Вернувшись в Асгард в поисках таинственного врага, ведущего охоту на Камни Бесконечности, Тор обнаруживает, что действия его брата Локи, захватившего трон Асгарда, привели к приближению наиболее страшного события — Рагнарёка. По легенде, это ознаменует последнюю битву Асгарда, последствием которой станет его полное уничтожение. В попытке предотвратить это событие, Тору предстоит прибегнуть к помощи своего товарища из Мстителей — Халка. Вместе, им предстоит столкнуться лицом к лицу со злейшим врагом всех девяти миров — огненным демоном Суртуром, целью которого является исполнение пророчества о Рагнарёке и уничтожение девяти миров.- -Качество видео: TeleSynch
Контейнер: AVI
Видео кодек: XviD
Аудио кодек: AC3
Видео: 720x320, 23.976 fps, 1418 Кбит/с, Bits/(Pixel*Frame) : 0.257
Аудио: 192 kb/s, 2 ch, 48.0 KHz
Cубтитры: отсутствуют
D:\Torrents\TOR.Ragnarek.2O17.P.TS.1400mb.avi
General
Complete name : D:\Torrents\TOR.Ragnarek.2O17.P.TS.1400mb.avi
Format : AVI
Format/Info : Audio Video Interleave
File size : 1.37 GiB
Duration : 2h 0mn
Overall bit rate : 1 620 Kbps
Writing application : VirtualDubMod 1.5.10.2 (build 2540/release)
Writing library : VirtualDubMod build 2540/release
Video #0
ID : 0
Format : MPEG-4 Visual
Format profile : Advanced [email protected]
Format settings, BVOP : 2
Format settings, QPel : No
Format settings, GMC : No warppoints
Format settings, Matrix : Default (MPEG)
Codec ID : XVID
Codec ID/Hint : XviD
Duration : 2h 0mn
Bit rate : 1 419 Kbps
Width : 720 pixels
Height : 320 pixels
Display aspect ratio : 2.25:1
Frame rate : 23.976 fps
Color space : YUV
Chroma subsampling : 4:2:0
Bit depth : 8 bits
Scan type : Progressive
Compression mode : Lossy
Bits/(Pixel*Frame) : 0.257
Stream size : 1.20 GiB (88%)
Writing library : XviD 1.2.1 (UTC 2008-12-04)
Audio #1
ID : 1
Format : AC-3
Format/Info : Audio Coding 3
Mode extension : CM (complete main)
Format settings, Endianness : Big
Codec ID : 2000
Duration : 2h 0mn
Bit rate mode : Constant
Bit rate : 192 Kbps
Channel count : 2 channels
Channel positions : Front: L R
Sampling rate : 48.0 KHz
Bit depth : 16 bits
Compression mode : Lossy
Stream size : 166 MiB (12%)
Alignment : Split accross interleaves
Interleave, duration : 42 ms (1.00 video frame)
Interleave, preload duration : 500 ms
Download / Скачать

Хотите скачать бесплатно? Зарегистрируйтесь на сайте (ссылка на регистрацию). Pirat.ca - самый быстрый торрент трекер в рунете!

Как скачивать  ·   Что такое торрент  ·   Рейтинг и ограничения

Геннадий

Морской Волк

Пост 30-Окт-2017 01:07 (спустя 6 часов)

[Q] 

Класс!!! Насколько раньше официального показа!!!
Добавлено спустя 46 секунд:
Спасибо огромное качаю!
[Профиль]  [ЛС] 

Infidel79

Лоцман

Пост 30-Окт-2017 14:24 (спустя 13 часов)

[Q] 

как качество?
[Профиль]  [ЛС] 

Кристина119

Гроза морей

Пост 30-Окт-2017 15:02 (спустя 37 минут)

[Q] 

Спасибо, но подождем качества
[Профиль]  [ЛС] 

pacco

Корсар

Пост 30-Окт-2017 16:10 (спустя 1 час 7 минут)

[Q] 

оперативно!!!спасибо!
Добавлено спустя 13 минут 21 секунда:
как кинчик, фильм тот, не тот или ещё тот ?
[Профиль]  [ЛС] 

Infidel79

Лоцман

Пост 30-Окт-2017 17:16 (спустя 1 час 6 минут)

[Q] 

фильм как и весь марвел, качество - смотрибельно, но есть реклама... прям большая реклама!!!
[Профиль]  [ЛС] 

h5n1

Гроза морей

498

Пост 30-Окт-2017 17:30 (спустя 13 минут)

[Q] 

Лови бочку поддержу раздачу

_________________
«Мы находимся здесь, чтобы внести свой вклад в этот мир. Иначе зачем мы здесь?» S.Jobs
[Профиль]  [ЛС] 

demon-292

Корсар

Пост 30-Окт-2017 21:15 (спустя 3 часа)

[Q] 

Лови бочку Спасибо!!!
[Профиль]  [ЛС] 

Towelie

Корсар

13

Пост 31-Окт-2017 08:02 (спустя 10 часов)

[Q] 

спасибо за релиз, но подожду качество
[Профиль]  [ЛС] 

Мания величия

Морской Волк

Пост 31-Окт-2017 22:32 (спустя 14 часов)

[Q] 

фильм гуд но хочется качества!!!!! раздавану СПС

_________________
[Профиль]  [ЛС] 

dedsmart

Лоцман

Пост 01-Ноя-2017 19:35 (спустя 21 час)

[Q] 

Лови бочку спасибо
[Профиль]  [ЛС] 

Mirgilip

Штурман

Пост 03-Ноя-2017 02:12 (спустя 1 день 6 часов)

[Q] 

Кому качествоЮ а старым маразматикам вроде меня для ознакомления - самое то. Чо я в том "качестве" не видал ? Спасибо, дорогой товарищ !
[Профиль]  [ЛС] 

pan_tera

Корсар

Пост 04-Ноя-2017 01:42 (спустя 23 часа)

[Q] 

Немножко, подождем и насладимся картинкой и качеством. Ку три раза
[Профиль]  [ЛС] 

h5n1

Гроза морей

498

Пост 04-Ноя-2017 11:34 (спустя 9 часов)

[Q] 

посмотрел, так и не понял- комедия, боевик...

_________________
«Мы находимся здесь, чтобы внести свой вклад в этот мир. Иначе зачем мы здесь?» S.Jobs
[Профиль]  [ЛС] 

Freeman_rush

Лоцман

Пост 04-Ноя-2017 14:29 (спустя 2 часа 55 минут)

[Q] 

не качает! первый раз такой облом((
[Профиль]  [ЛС] 

alersander

Корсар

Пост 04-Ноя-2017 23:17 (спустя 8 часов)

[Q] 

нормальный фильмец Лови бочку
[Профиль]  [ЛС] 

baltimor30

Корсар

Пост 16-Ноя-2017 23:53 (спустя 12 дней)

[Q] 

Дубляж с этиниконтанте, радригез калифорни прикольный, но в качестве жду, марвел есть марвел
[Профиль]  [ЛС] 

usya5

Корсар

Пост 18-Ноя-2017 18:32 (спустя 1 день 18 часов)

[Q] 

посмотреть можно....
Автору респект!!!
[Профиль]  [ЛС] 

Незнайка

Флибустьер

Пост 18-Ноя-2017 18:38 (спустя 6 минут)

[Q] 

автору респект
Спасибо!!!
[Профиль]  [ЛС] 

koljan-2008

Флибустьер

5

Пост 12-Дек-2017 16:19 (спустя 23 дня)

[Q] 

Скорей бы качество нормальное появилось! Жду с нетерпением! Автору спасибо!

_________________
6/45 С/П Мой!
[Профиль]  [ЛС] 

Ya Fratkin

Корсар

Пост 23-Дек-2017 23:59 (спустя 11 дней)

[Q] 

Спасибо за раздачу.
Лови бочку
[Профиль]  [ЛС] 

Cepreu

Корсар

Пост 06-Янв-2018 20:30 (спустя 13 дней)

[Q] 

Дубляж ржачный. Как будто пацаны у подъезда пиво пьют.
[Профиль]  [ЛС] 
Показать сообщения:    
Ответить на тему

Текущее время: Сегодня 11:39

Часовой пояс: GMT + 4



Вы не можете начинать темы
Вы не можете отвечать на сообщения
Вы не можете редактировать свои сообщения
Вы не можете удалять свои сообщения
Вы не можете голосовать в опросах
Вы не можете прикреплять файлы к сообщениям
Вы не можете скачивать файлы

▼ Вниз