Лига справедливости / Justice League (Зак Снайдер / Zack Snyder) [2017 г., фантастика, фэнтези, боевик, приключения, TeleSynch] Dub

Ответить на тему
 
Автор
Сообщение

Пост 19-Ноя-2017 16:58

[Q] 

Су-34

Гроза морей

-Лига справедливости / Justice League«Нельзя спасти мир в одиночку»- -Производство: США
Год выпуска: 2017 г.
Жанр: фантастика, фэнтези, боевик, приключения
Продолжительность: 01:49:35
Мировая премьера: 13 ноября 2017
Российская премьера: 16 ноября 2017, «Каро-Премьер»
Перевод: Профессиональный (полное дублирование)-Режиссёр: Зак Снайдер / Zack Snyder-В ролях: Бен Аффлек, Генри Кавилл, Эми Адамс, Галь Гадот, Эзра Миллер, Джейсон Момоа, Рэй Фишер, Джереми Айронс, Дайан Лэйн, Конни Нильсен-Описание: Брюс Уэйн, вдохновлённый самопожертвованием Супермена, вновь обретает веру в человечество. Он заручается поддержкой новой союзницы, Дианы Принс, чтобы сразиться с еще более могущественным противником. Бэтмен и Чудо-Женщина быстро набирают команду сверхлюдей для борьбы с пробудившейся угрозой. Но несмотря на уникальный состав отряда супергероев — Бэтмен, Чудо-Женщина, Аквамэн, Киборг и Флэш, — быть может, спасать планету от вторжения катастрофических масштабов уже слишком поздно...- -Качество видео: TeleSynch
Контейнер: AVI
Видео кодек: XviD
Аудио кодек: AC3
Видео: 720x336 (2.143), 23.976 fps, XviD ~1 701 kbps avg
Аудио: 48 kHz, AC3 Dolby Digital, 2/0 (L,R) ch, ~192 kbps
Cубтитры: отсутствуют
D:\Torrents\LiGa.SuperMenoFF.2O17.D.TS.14OOMB_KOSHARA.avi
General
Complete name : D:\Torrents\LiGa.SuperMenoFF.2O17.D.TS.14OOMB_KOSHARA.avi
Format : AVI
Format/Info : Audio Video Interleave
File size : 1.46 GiB
Duration : 1h 49mn
Overall bit rate : 1 903 Kbps
Writing application : VirtualDubMod 1.5.10.2 (build 2540/release)
Writing library : VirtualDubMod build 2540/release
Video #0
ID : 0
Format : MPEG-4 Visual
Format profile : Advanced [email protected]
Format settings, BVOP : 2
Format settings, QPel : No
Format settings, GMC : No warppoints
Format settings, Matrix : Default (MPEG)
Codec ID : XVID
Codec ID/Hint : XviD
Duration : 1h 49mn
Bit rate : 1 702 Kbps
Width : 720 pixels
Height : 336 pixels
Display aspect ratio : 2.143
Frame rate : 23.976 fps
Color space : YUV
Chroma subsampling : 4:2:0
Bit depth : 8 bits
Scan type : Progressive
Compression mode : Lossy
Bits/(Pixel*Frame) : 0.293
Stream size : 1.30 GiB (89%)
Writing library : XviD 1.2.1 (UTC 2008-12-04)
Audio #1
ID : 1
Format : AC-3
Format/Info : Audio Coding 3
Mode extension : CM (complete main)
Format settings, Endianness : Big
Codec ID : 2000
Duration : 1h 49mn
Bit rate mode : Constant
Bit rate : 192 Kbps
Channel count : 2 channels
Channel positions : Front: L R
Sampling rate : 48.0 KHz
Bit depth : 16 bits
Compression mode : Lossy
Stream size : 150 MiB (10%)
Alignment : Split accross interleaves
Interleave, duration : 42 ms (1.00 video frame)
Interleave, preload duration : 500 ms
Download / Скачать

Хотите скачать бесплатно? Зарегистрируйтесь на сайте (ссылка на регистрацию). Pirat.ca - самый быстрый торрент трекер в рунете!

Как скачивать  ·   Что такое торрент  ·   Рейтинг и ограничения

usya5

Корсар

Пост 19-Ноя-2017 21:00 (спустя 4 часа)

[Q] 

Спасибо за труд, раздающий! Лови бочку
[Профиль]  [ЛС] 

denzuk

Штурман

Пост 19-Ноя-2017 22:49 (спустя 1 час 48 минут)

[Q] 

Лови бочку
годно, смотреть можно
[Профиль]  [ЛС] 

Ya Fratkin

Корсар

Пост 22-Ноя-2017 23:49 (спустя 3 дня)

[Q] 

СПАСИБО Лови бочку
[Профиль]  [ЛС] 

zvernight

Гроза морей

Пост 24-Ноя-2017 20:34 (спустя 1 день 20 часов)

[Q] 

Спасибо!!! Супер!
[Профиль]  [ЛС] 

ketzer

Корсар

Пост 25-Ноя-2017 07:05 (спустя 10 часов)

[Q] 

Рип хороший, но сам фильм... Еле досмотрел с третьего раза.
[Профиль]  [ЛС] 

ketzer

Корсар

Пост 25-Ноя-2017 21:59 (спустя 14 часов)

[Q] 

Как-то вообще стыдновато за Зака Снайдера. После "Смотрителей" и "Сакер панча" снимать такое... Нет, ну "Человек из стали" был очень даже хорош, но потом начался какой-то позор.
[Профиль]  [ЛС] 

lightmaster

Гроза морей

Пост 02-Дек-2017 21:44 (спустя 6 дней)

[Q] 

Галя хорошенькая-посмотрю Лови бочку
[Профиль]  [ЛС] 

Cepreu

Корсар

Пост 06-Янв-2018 20:23 (спустя 1 месяц 3 дня)

[Q] 

Что-то про сэмпл гноворит, что файл не найден.
[Профиль]  [ЛС] 

exelero07

Гроза морей

Пост 18-Июл-2018 23:48 (спустя 6 месяцев 12 дней)

[Q] 

Получилось не лучше мстителей.
[Профиль]  [ЛС] 
Показать сообщения:    
Ответить на тему

Текущее время: Сегодня 21:21

Часовой пояс: GMT + 4



Вы не можете начинать темы
Вы не можете отвечать на сообщения
Вы не можете редактировать свои сообщения
Вы не можете удалять свои сообщения
Вы не можете голосовать в опросах
Вы не можете прикреплять файлы к сообщениям
Вы не можете скачивать файлы

Майнать ▼