Уважаемый Гость!
Вы можете поддержать проект и зарегистрироваться у наших партнеров - онлайн-стратегия MyLands. При регистрации в игре Вы получите код, который сможете активировать после регистрации на pirat.ca и получить 1000 дублонов.

Ваш код:
78aa50a474eca84d8db013aa70ab4d3c854287b1
 
     

Звёздные войны: Последние джедаи / Star Wars: The Last Jedi (Райан Джонсон / Rian Johnson) [2017, фантастика, фэнтези, боевик, приключения, TS 720p] (DUB)

Ответить на тему
 
Автор
Сообщение

Пост 19-Дек-2017 13:47

[Q] 

kugesan

Звёздные войны: Последние джедаи / Star Wars: The Last Jedi- Год выпуска: 2017
Производство: США
Жанр: фантастика, фэнтези, боевик, приключения
Продолжительность: 02:24:13
Перевод: Профессиональный (полное дублирование)-Режиссер: Райан Джонсон / Rian Johnson
В ролях: Марк Хэмилл, Кэрри Фишер, Адам Драйвер, Дэйзи Ридли, Джон Бойега, Оскар Айзек, Энди Серкис, Лупита Нионго, Донал Глисон, Энтони Дэниелс-Описание:
Новая история о противостоянии света и тьмы, добра и зла начинается после гибели Хана Соло. В Галактике, где Первый Орден и Сопротивление яростно сражаются друг с другом в войне, героиня Рей пробудила в себе Силу. Но что произойдет, когда она встретится с единственным оставшимся в живых рыцарем-джедаем — Люком Скайуокером?
Кайло Рен перешел на Темную сторону Силы и убил собственного отца, заняв высокую позицию в Первом Ордене. Но куда приведут его неуемные амбиции, подаренные по наследству грозным дедом Дартом Вейдером? Ситуация обострится еще больше, когда мать Кайло, лидер Сопротивления Лея, вместе с По, Финном и BB-8 приступит к новой миссии.--- -Качество: TS 720p (Proper)
Формат: MKV
Видео кодек: x.264
Аудио кодек: AC3
Видео: AVC, 1280x522 (2.452), 23.976 fps, 3 770 Kbps (0.235 bit/pixel)
Аудио: AC-3, 48.0 KHz, 2 ch, 384 Kbps, CBR-Примечание: присутствует реклама
-
Общее
Уникальный идентификатор : 242789838684930850182861193295557894494 (0xB6A79F3EC67BE03493E04B31C305215E)
Полное имя : Zvezdovoayna.VIII.2O17.D.TS.PROPER.72OP_KOSHARA.mkv
Формат : Matroska
Версия формата : Version 2
Размер файла : 4,19 Гбайт
Продолжительность : 2 ч. 24 м.
Режим общего битрейта : Переменный
Общий поток : 4156 Кбит/сек
Дата кодирования : UTC 2017-12-16 05:53:42
Программа кодирования : mkvmerge v8.3.0 ('Over the Horizon') 64bit
Библиотека кодирования : libebml v1.3.1 + libmatroska v1.4.2
Видео
Идентификатор : 1
Формат : AVC
Формат/Информация : Advanced Video Codec
Профиль формата : [email protected]
Параметр CABAC формата : Да
Параметр ReFrames формата : 12 кадров
Идентификатор кодека : V_MPEG4/ISO/AVC
Продолжительность : 2 ч. 24 м.
Вид битрейта : Переменный
Битрейт : 3770 Кбит/сек
Максимальный битрейт : 4000 Кбит/сек
Ширина : 1280 пикселей
Высота : 522 пикселя
Соотношение сторон : 2,452
Режим частоты кадров : Постоянный
Частота кадров : 23,976 (24000/1001) кадра/сек
Стандарт вещания : Component
Цветовое пространство : YUV
Субдискретизация насыщенности : 4:2:0
Битовая глубина : 8 бит
Тип развёртки : Прогрессивная
Бит/(Пиксели*Кадры) : 0.235
Размер потока : 3,80 Гбайт (91%)
Default : Да
Forced : Нет
Цветовой диапазон : Limited
Основные цвета : BT.709
Характеристики трансфера : BT.709
Коэффициенты матрицы : BT.709
Аудио
Идентификатор : 2
Формат : AC-3
Формат/Информация : Audio Coding 3
Параметр Endianness формата : Big
Идентификатор кодека : A_AC3
Продолжительность : 2 ч. 24 м.
Вид битрейта : Постоянный
Битрейт : 384 Кбит/сек
Каналы : 2 канала
Расположение каналов : Front: L R
Частота : 48,0 КГц
Частота кадров : 31,250 кадров/сек (1536 spf)
Битовая глубина : 16 бит
Метод сжатия : С потерями
Размер потока : 396 Мбайт (9%)
ServiceKind/String : Complete Main
Default : Да
Forced : Нет
-
-
Download / Скачать

Хотите скачать бесплатно? Зарегистрируйтесь на сайте (ссылка на регистрацию). Pirat.ca - самый быстрый торрент трекер в рунете!

Как скачивать  ·   Что такое торрент  ·   Рейтинг и ограничения



Последний раз редактировалось: kugesan (2017-12-23 22:11), всего редактировалось 1 раз

cnfhgth

Юнга

Пост 19-Дек-2017 16:20 (спустя 2 часа 32 минуты)

[Q] 

Звук очень плохой, впрочем, как и все остальное.
[Профиль]  [ЛС] 

alersander

Корсар

Пост 19-Дек-2017 20:32 (спустя 4 часа)

[Q] 

Качество ужас.
качать не буду подожду может получше качество появиться
[Профиль]  [ЛС] 

SkyWard

Лоцман

Пост 19-Дек-2017 23:03 (спустя 2 часа 30 минут)

[Q] 

Описание вообще супер, именно это я и смотрел в кинотеатре)
[Профиль]  [ЛС] 

gudvin.dll

Штурман

2

Пост 20-Дек-2017 10:59 (спустя 11 часов)

[Q] 

как за*** это азино :D
[Профиль]  [ЛС] 

Towelie

Корсар

13

Пост 21-Дек-2017 02:39 (спустя 15 часов)

[Q] 

за релиз - Лови бочку
подскажите пожалуйста, когда примерно ждать качество?
[Профиль]  [ЛС] 

usya5

Корсар

Пост 21-Дек-2017 19:13 (спустя 16 часов)

[Q] 

за раздачу - спасибо! но для 4 гигов качество кавёненькое..
[Профиль]  [ЛС] 

alex198408

Морской Волк

Пост 22-Дек-2017 13:28 (спустя 18 часов)

[Q] 

Будем ждать ,а так спасибо Лови бочку
[Профиль]  [ЛС] 

pacak

Лоцман

Пост 22-Дек-2017 16:57 (спустя 3 часа)

[Q] 

Послушайте, но это же скринер!! Причем ужасный, препоганейшее качество, все время фокус гуляет... Зачем ыло обманывать и писать TeleSync???
[Профиль]  [ЛС] 

kilinskas

Штурман

5

Пост 23-Дек-2017 02:06 (спустя 9 часов)

[Q] 

Качество просто пипеццц. Хуже я еще не видел. =(
Трафик потрачен зря!

_________________
[Профиль]  [ЛС] 

Су-34

Гроза морей

13491

Пост 23-Дек-2017 12:58 (спустя 10 часов)

[Q] 

814883Производство: Франция
Ты ничего не перепутал случаем??? Или это другое кино??
[Профиль]  [ЛС] 

Alhimik

Шкипер

17

Пост 23-Дек-2017 17:09 (спустя 4 часа)

[Q] 

Кино так себе, но меня все время уделяет, ещё с прошлого фильма, почему на главную роль подобрали такую СТРАШНУЮ бабу?
Это такой тренд сегодня заморышей и страхолюдин на главные роли выводить?
Такая же история и с новой Ларой Крофт, после Джоли смотреть даже не охото.
[Профиль]  [ЛС] 

Ya Fratkin

Корсар

Пост 24-Дек-2017 00:07 (спустя 6 часов)

[Q] 

Чет тут такие все критики!
Не нравится, идите в кино!
Что вы тут вообще делаете?
За релиз - большое спасибо! Лови бочку
[Профиль]  [ЛС] 

Pirat177

Корсар

Пост 28-Дек-2017 09:34 (спустя 4 дня)

[Q] 

К сожалению качество говно....
[Профиль]  [ЛС] 

Madwarg

Морской Волк

Пост 29-Дек-2017 18:10 (спустя 1 день 8 часов)

[Q] 

За релиз спасибо, но подожду качества. Ром отправил

_________________
Я не Морской Волк, я Корсар! Просто немногословный... ;)
[Профиль]  [ЛС] 

Cepreu

Корсар

Пост 06-Янв-2018 20:21 (спустя 8 дней)

[Q] 

В этом фильме всё равно ничего интересного, кроме картинки - кому нужно что-то другое?
[Профиль]  [ЛС] 

Полтос

Флибустьер

Пост 14-Янв-2018 17:34 (спустя 7 дней)

[Q] 

Неплохой фильм. Есть несуразности, но есть и юмор. Не самый плохой из серии, но надо смотреть в кинотеатре.

_________________
Первый закон Прапорщика: Всё что поднимаемо - относительно!)
[Профиль]  [ЛС] 

kugesan ®

61625

Пост 15-Янв-2018 11:03 (спустя 17 часов)

[Q] 

Звёздные войны: Последние джедаи / Star Wars: The Last Jedi (Райан Джонсон / Rian Johnson) [2017, фантастика, фэнтези, боевик, приключения, Telecine 720p] (DUB)

_________________
В мире две бесконечности: вселенная и человеческая глупость - Альберт Эйнштен
«Можно вытащить человека из грязи, но нельзя вытащить грязь из человека»!
[Профиль]  [ЛС] 
Показать сообщения:    
Ответить на тему

Текущее время: Сегодня 11:33

Часовой пояс: GMT + 4



Вы не можете начинать темы
Вы не можете отвечать на сообщения
Вы не можете редактировать свои сообщения
Вы не можете удалять свои сообщения
Вы не можете голосовать в опросах
Вы не можете прикреплять файлы к сообщениям
Вы не можете скачивать файлы

▼ Вниз