Уважаемый Гость!
Вы можете поддержать проект и зарегистрироваться у наших партнеров - онлайн-стратегия MyLands. При регистрации в игре Вы получите код, который сможете активировать после регистрации на pirat.ca и получить 1000 дублонов.

Ваш код:
0f1be5072d2fb8a64c7adec1c9570e0522699fb5
 
     

Джуманджи: Зов джунглей / Jumanji: Welcome to the Jungle (Джейк Кэздан / Jake Kasdan) [2017 г., фэнтези, боевик, комедия, приключения, семейный, TS] Dub

Ответить на тему
 
Автор
Сообщение

Пост 27-Дек-2017 09:14

[Q] 

aleksey99

--Джуманджи: Зов джунглей / Jumanji: Welcome to the Jungle--«Осторожно, засосёт»-- Производство: США / Matt Tolmach Productions
Год выпуска: 2017 г.
Жанр: фэнтези, боевик, комедия, приключения, семейный
Продолжительность: 01:51:02--Мировая премьера: 5 декабря 2017
Российская премьера: 21 декабря 2017, «WDSSPR»--Перевод: Профессиональный (полное дублирование)--Режиссер: Джейк Кэздан / Jake Kasdan--В ролях: Дуэйн Джонсон, Кевин Харт, Джек Блэк, Карен Гиллан, Риз Дэрби, Бобби Каннавале, Ник Джонас, Алекс Вулф, Сер’Дариус Блэйн, Мэдисон Исман--Описание: Четверо подростков оказываются внутри игры «Джуманджи». Их ждет схватка с носорогами, черными мамбами, а на каждом шагу будет подстерегать бесконечная череда ловушек и головоломок. Чтобы пройти игру и остаться в живых, им придется перевоплотиться в персонажей игры: робкий и застенчивый Спенсер превращается в отважного и сильного исследователя, здоровяк Фридж — в коротышку, модница и красавица Беттани — в профессора, а неуклюжая и нескладная Марта становится бесстрашной и ловкой амазонкой. Друзьям придется привыкнуть к совершенно новым и таким непривычным для себя ролям и найти дорогу домой.-- --Качество видео: TS
Контейнер: AVI
Видео кодек: XviD
Аудио кодек: AC3
Видео: 720x304 (2.37:1), 23.976 fps, XviD build 50 ~1677 kbps avg, 0.32 bit/pixel
Аудио: 48 kHz, AC3 Dolby Digital, 2/0 (L,R) ch, ~192 kbps
Cубтитры: отсутствуют.
Общее
Полное имя : H:\Torrent2\Jumanji.2O17.D.TS.14OOMB.avi
Формат : AVI
Формат/Информация : Audio Video Interleave
Размер файла : 1,46 Гбайт
Продолжительность : 1 ч. 51 м.
Общий поток : 1879 Кбит/сек
Программа кодирования : VirtualDubMod 1.5.10.2 (build 2540/release)
Библиотека кодирования : VirtualDubMod build 2540/release
Видео
Идентификатор : 0
Формат : MPEG-4 Visual
Профиль формата : Advanced [email protected]
Параметр BVOP формата : 2
Параметр QPel формата : Нет
Параметр GMC формата : Без точки перехода
Параметр матрицы формата : Default (MPEG)
Идентификатор кодека : XVID
Идентификатор кодека/Подсказка : XviD
Продолжительность : 1 ч. 51 м.
Битрейт : 1678 Кбит/сек
Ширина : 720 пикселей
Высота : 304 пикселя
Соотношение сторон : 2,35:1
Частота кадров : 23,976 (24000/1001) кадра/сек
Цветовое пространство : YUV
Субдискретизация насыщенности : 4:2:0
Битовая глубина : 8 бит
Тип развёртки : Прогрессивная
Метод сжатия : С потерями
Бит/(Пиксели*Кадры) : 0.320
Размер потока : 1,30 Гбайт (89%)
Библиотека кодирования : XviD 1.2.1 (UTC 2008-12-04)
Аудио
Идентификатор : 1
Формат : AC-3
Формат/Информация : Audio Coding 3
Расширение режима : CM (complete main)
Параметр Endianness формата : Big
Идентификатор кодека : 2000
Продолжительность : 1 ч. 51 м.
Вид битрейта : Постоянный
Битрейт : 192 Кбит/сек
Каналы : 2 канала
Расположение каналов : Front: L R
Частота : 48,0 КГц
Частота кадров : 31,250 кадров/сек (1536 spf)
Метод сжатия : С потерями
Размер потока : 152 Мбайт (10%)
Выравнивание : Разделение по промежуткам
Продолжительность промежутка : 42 мс. (1,00 видеокадр)
Время предзагрузки промежутка : 500 мс.
Трейлер
Download / Скачать

Хотите скачать бесплатно? Зарегистрируйтесь на сайте (ссылка на регистрацию). Pirat.ca - самый быстрый торрент трекер в рунете!

Как скачивать  ·   Что такое торрент  ·   Рейтинг и ограничения

cv1979

Морской Волк

Пост 27-Дек-2017 23:01 (спустя 13 часов)

[Q] 

спасибо. Пиратка рулит! Лови бочку
[Профиль]  [ЛС] 

[email protected]

Шкипер

Пост 28-Дек-2017 09:02 (спустя 10 часов)

[Q] 

Интересно сравнить со старым джуманджи....
[Профиль]  [ЛС] 

Ya Fratkin

Корсар

Пост 01-Янв-2018 20:28 (спустя 4 дня)

[Q] 

Спасибо! Лови бочку
[Профиль]  [ЛС] 

Мания величия

Морской Волк

Пост 14-Янв-2018 00:34 (спустя 12 дней)

[Q] 

крайне на любителя 1 часть больше цепанула!!

_________________
[Профиль]  [ЛС] 

Андря

8547

Пост 14-Янв-2018 13:23 (спустя 12 часов)

[Q] 

Первая часть значительно отличается от второй. Не стоит их сравнивать.
Время прошло, игра подстраивается под настоящее.
Интересный фильм.

_________________
Като Тешекика
[Профиль]  [ЛС] 

Ribka

Лоцман

Пост 15-Янв-2018 23:10 (спустя 1 день 9 часов)

[Q] 

Отличный фильм. С детворой наржались в кинотеатре. Всем советую.
[Профиль]  [ЛС] 
Показать сообщения:    
Ответить на тему

Текущее время: Сегодня 00:20

Часовой пояс: GMT + 4



Вы не можете начинать темы
Вы не можете отвечать на сообщения
Вы не можете редактировать свои сообщения
Вы не можете удалять свои сообщения
Вы не можете голосовать в опросах
Вы не можете прикреплять файлы к сообщениям
Вы не можете скачивать файлы

▼ Вниз